<?xml version="1.0" standalone="no"?>
<!DOCTYPE svg PUBLIC "-//W3C//DTD SVG 1.1//EN" "https://www.w3.org/Graphics/SVG/1.1/DTD/svg11.dtd" >
<svg xmlns="https://www.w3.org/2000/svg" xmlns:xlink="https://www.w3.org/1999/xlink" version="1.1">
<metadata>
Created by FontForge 20170731 at Wed Feb 20 16:55:26 2008
 By ,,,
Copyright (c) 2007 Monotype Imaging Inc. Soho is designed by Sebastian Lester. All rights reserved.
</metadata>
<defs>
<font id="SohoGothicPro-Regular" horiz-adv-x="936" >
  <font-face 
    font-family="Soho Gothic Pro"
    font-weight="400"
    font-stretch="normal"
    units-per-em="2048"
    panose-1="2 11 5 3 3 5 4 2 2 4"
    ascent="1602"
    descent="-446"
    x-height="1126"
    cap-height="1522"
    bbox="-154 -608 2916 2341"
    underline-thickness="121"
    underline-position="-216"
    unicode-range="U+0020-FE6A"
  />
<missing-glyph horiz-adv-x="2048" 
d="M1792 0h-1536v1536h1536v-1536zM1663 129v1278h-1278v-1278h1278z" />
    <glyph glyph-name="f_f" unicode="ff" horiz-adv-x="1489" 
d="M922 0v973h-484v-973h-184v973l-213 20v133h213v136q0 65 8 128t37.5 112.5t87.5 79.5t158 30q33 0 66.5 -3t63 -7.5t53 -9.5t36.5 -9v-125q-12 1 -34 2t-49.5 2.5t-57.5 2.5t-58 1q-45 0 -70.5 -12.5t-38 -37.5t-15.5 -63.5t-3 -90.5v-136h484v136q0 65 8 128t37 112.5
t86.5 79.5t156.5 30q33 0 66.5 -3t63.5 -7.5t53.5 -9.5t36.5 -9v-125q-12 1 -34 2t-49.5 2.5t-57.5 2.5t-58 1q-45 0 -70.5 -12t-38 -36.5t-15.5 -63t-3 -92.5v-136h319v-153h-319v-973h-182z" />
    <glyph glyph-name="f_i" unicode="fi" horiz-adv-x="1274" 
d="M920 0v973h-484v-973h-182v973l-215 20v133h215v136q0 70 8 133.5t37.5 111.5t87 76.5t156.5 28.5q33 0 66.5 -3t63 -7.5t53 -9.5t36.5 -9v-125q-12 1 -34 2t-49.5 2.5t-57.5 2.5t-58 1q-45 0 -70.5 -12t-38 -36.5t-15.5 -63t-3 -92.5v-136h668v-1126h-184zM918 1335v250
h188v-250h-188z" />
    <glyph glyph-name="f_l" unicode="fl" horiz-adv-x="1286" 
d="M932 0v1452q-18 1 -51.5 3.5t-75.5 5t-88 4t-88 1.5q-53 0 -89.5 -6.5t-59.5 -28t-33.5 -62t-10.5 -107.5v-136h320v-153h-320v-973h-182v973l-215 20v133h215v136q0 100 22 167t66 107.5t110 58t154 17.5q49 0 98.5 -3.5t93.5 -8t79 -9t55 -6.5h184v-1585h-184z" />
    <glyph glyph-name="f_f_i" unicode="ffi" horiz-adv-x="1937" 
d="M1583 0v973h-479v-973h-182v973h-484v-973h-184v973l-213 20v133h213v136q0 67 8 130.5t37.5 112t87.5 78t158 29.5q33 0 66.5 -3t63 -7.5t53 -9.5t36.5 -9v-125q-12 1 -34 2t-49.5 2.5t-57.5 2.5t-58 1q-45 0 -70 -12t-38 -36.5t-16 -63t-3 -92.5v-136h484v136
q0 67 8 130.5t37 112t86.5 78t156.5 29.5q33 0 66.5 -3t63.5 -7.5t53.5 -9.5t36.5 -9v-125q-12 1 -34 2t-49.5 2.5t-57.5 2.5t-58 1q-45 0 -70 -12t-38 -36.5t-16 -63t-3 -92.5v-136h663v-1126h-184zM1581 1335v250h191v-250h-191z" />
    <glyph glyph-name="f_f_l" unicode="ffl" horiz-adv-x="1950" 
d="M1595 0v1452q-18 1 -51 3.5t-74 5t-86.5 4t-87.5 1.5q-53 0 -89.5 -6.5t-59.5 -28t-33 -62t-10 -107.5v-136h319v-153h-319v-973h-184v973h-482v-973h-184v973l-213 20v133h213v136q0 67 8.5 130.5t38 112t87.5 78t157 29.5q33 0 66.5 -3t63 -7.5t53 -9.5t36.5 -9v-125
q-12 1 -34 2t-49.5 2.5t-57.5 2.5t-58 1q-45 0 -70.5 -12t-38 -36.5t-15.5 -63t-3 -92.5v-136h482v136q0 100 22 167t66 107.5t110.5 58t155.5 17.5q48 0 96.5 -3.5t92 -8t78 -9t54.5 -6.5h185v-1585h-185z" />
    <glyph glyph-name="f_b" unicode="fb" horiz-adv-x="1944" 
d="M1831 487q0 -135 -31 -232.5t-93.5 -160.5t-156.5 -93t-219 -30q-52 0 -96.5 1.5t-91.5 5.5t-101 9t-124 13v1452q-57 5 -133.5 8.5t-166.5 3.5q-49 0 -83.5 -6.5t-56.5 -27.5t-32 -61t-10 -107v-136h320v-153h-320v-973h-182v973l-215 20v133h215v136q0 97 21.5 163.5
t64.5 108t107.5 60t150.5 18.5q97 0 177 -9.5t143 -17.5h182v-502q75 42 155.5 59t149.5 17q220 0 323 -117.5t103 -361.5v-193zM1647 682q0 85 -14 145t-45.5 97.5t-82 55t-123.5 17.5q-21 0 -55 -2.5t-73 -9t-79 -18t-73 -29.5v-793q40 -3 100 -6.5t135 -3.5
q79 0 137.5 17.5t96.5 59t57 109t19 168.5v193z" />
    <glyph glyph-name="f_f_b" unicode="ffb" horiz-adv-x="2619" 
d="M2507 487q0 -135 -31 -232.5t-93.5 -160.5t-156.5 -93t-219 -30q-52 0 -96.5 1.5t-91.5 5.5t-101 9t-125 13v1452q-16 1 -48 3.5t-73 4t-87 3t-91 1.5q-49 0 -83.5 -6.5t-56.5 -27.5t-32 -61t-10 -107v-136h320v-153h-320v-973h-182v973h-492v-973h-184v973l-213 16v137
h213v136q0 43 2.5 86t12.5 82t29 72.5t51 57.5t80 38t116 14q66 0 122.5 -10t94.5 -19v-125q-37 2 -88.5 5t-104.5 3q-47 0 -73.5 -12t-39 -36.5t-15.5 -63t-3 -92.5v-136h492v136q0 97 21.5 163.5t64.5 108t107.5 60t150.5 18.5q97 0 178 -8t141 -19h183v-502
q75 42 155.5 59t149.5 17q220 0 323 -117.5t103 -361.5v-193zM2322 682q0 85 -14 145t-45 97.5t-81.5 55t-123.5 17.5q-21 0 -55 -2.5t-73 -9t-79 -18t-73 -29.5v-793q34 -3 96 -6.5t139 -3.5q79 0 137 17.5t96.5 59t57 109t18.5 168.5v193z" />
    <glyph glyph-name="f_h" unicode="fh" horiz-adv-x="1985" 
d="M1647 0v713q0 83 -11.5 137.5t-37 86.5t-66 45t-98.5 13q-48 0 -95.5 -7.5t-90.5 -19.5t-80 -26t-64 -27v-915h-182v1452q-20 1 -52 3.5t-71.5 5t-83 4t-84.5 1.5q-53 0 -90 -6.5t-60 -28t-33 -62t-10 -107.5v-136h320v-153h-320v-973h-184v973l-213 20v133h213v136
q0 100 23 167t68 107.5t112 58t155 17.5q48 0 94.5 -3t87.5 -7.5t74 -9t54 -7.5h182v-522q27 14 64.5 30t84 30t101.5 23t116 9q184 0 272.5 -107.5t88.5 -328.5v-719h-184z" />
    <glyph glyph-name="f_f_h" unicode="ffh" horiz-adv-x="2650" 
d="M2312 0v713q0 83 -11.5 137.5t-36.5 86.5t-66 45t-99 13q-48 0 -95 -7.5t-90 -19.5t-79.5 -26t-62.5 -27v-915h-185v1452q-19 1 -51 3.5t-71 5t-83 4t-86 1.5q-53 0 -89.5 -6.5t-59.5 -28t-33 -62t-10 -107.5v-136h319v-153h-319v-973h-182v973h-484v-973h-184v973
l-213 20v133h213v136q0 43 2.5 86t12.5 82t29 72.5t51 57.5t80 38t116 14q33 0 66.5 -3t63 -7.5t53 -9.5t36.5 -9v-125q-12 1 -34 2t-49.5 2.5t-57.5 2.5t-58 1q-45 0 -70.5 -12t-38 -36.5t-15.5 -63t-3 -92.5v-136h484v136q0 100 22.5 167t67 107.5t111 58t155.5 17.5
q48 0 94.5 -3t87 -7.5t73.5 -9t54 -7.5h185v-522q26 14 63 30t83.5 30t101 23t116.5 9q186 0 273.5 -107.5t87.5 -328.5v-719h-185z" />
    <glyph glyph-name="f_j" unicode="fj" horiz-adv-x="1274" 
d="M682 -309q20 -2 51.5 -3t69.5 -1q37 0 60 8.5t36 29t17 54t4 84.5v1110h-482v-973h-184v973l-213 20v133h213v136q0 65 8.5 128t38 112.5t87.5 79.5t157 30q33 0 66.5 -3t63 -7.5t53 -9.5t36.5 -9v-125q-12 1 -34 2t-49.5 2.5t-57.5 2.5t-58 1q-45 0 -70 -12t-38 -36.5
t-16 -63t-3 -92.5v-136h666v-1263q0 -86 -14.5 -147t-47 -99.5t-85.5 -56t-130 -17.5q-23 0 -46 2t-42.5 4t-34.5 4.5t-22 4.5v133zM915 1335v250h191v-250h-191z" />
    <glyph glyph-name="f_f_j" unicode="ffj" horiz-adv-x="1939" 
d="M1348 -309q18 -2 50 -3t70 -1q37 0 60 8.5t35.5 29t17 54t4.5 84.5v1110h-481v-973h-184v973h-484v-973h-182v973l-215 20v133h215v136q0 65 8.5 128t38 112.5t87 79.5t155.5 30q33 0 66.5 -3t63 -7.5t53 -9.5t36.5 -9v-125q-12 1 -34 2t-49.5 2.5t-57.5 2.5t-58 1
q-45 0 -70 -13t-38 -38.5t-16 -63.5t-3 -89v-136h484v136q0 65 8 128t37.5 112.5t87 79.5t157.5 30q33 0 66 -3t62.5 -7.5t52.5 -9.5t36 -9v-125q-11 1 -33 2t-49 2.5t-56.5 2.5t-57.5 1q-45 0 -70.5 -12t-38 -36.5t-15.5 -63t-3 -92.5v-136h665v-1263q0 -86 -14.5 -147
t-47 -99.5t-85 -56t-129.5 -17.5q-23 0 -46 2t-43 4t-35 4.5t-21 4.5v133zM1581 1335v250h191v-250h-191z" />
    <glyph glyph-name="f_k" unicode="fk" horiz-adv-x="1833" 
d="M1559 0l-455 559v-559h-182v1452q-20 1 -52 3.5t-71.5 5t-83 4t-84.5 1.5q-53 0 -90 -6.5t-60 -28t-33 -62t-10 -107.5v-136h320v-153h-320v-973h-184v973l-213 20v133h213v136q0 100 23 167t68 107.5t112 58t155 17.5q48 0 94.5 -3t87.5 -7.5t74 -9t54 -7.5h182v-967
l452 508h238l-487 -534l495 -592h-243z" />
    <glyph glyph-name="f_f_k" unicode="ffk" horiz-adv-x="2499" 
d="M2224 0l-455 559v-559h-184v1452q-19 1 -51 3.5t-71 5t-82 4t-85 1.5q-53 0 -89.5 -6.5t-59.5 -28t-33 -62t-10 -107.5v-136h319v-153h-319v-973h-184v973h-482v-973h-184v973l-213 20v133h213v136q0 65 8 128t37.5 112.5t87.5 79.5t158 30q33 0 66.5 -3t63 -7.5t53 -9.5
t36.5 -9v-125q-12 1 -34 2t-49.5 2.5t-57.5 2.5t-58 1q-45 0 -70.5 -12t-38 -36.5t-15.5 -63t-3 -92.5v-136h482v136q0 100 22.5 167t67.5 107.5t111.5 58t154.5 17.5q48 0 95 -3t87.5 -7.5t73 -9t53.5 -7.5h184v-967l453 508h238l-488 -534l496 -592h-244z" />
    <glyph glyph-name=".notdef" horiz-adv-x="2048" 
d="M1792 0h-1536v1536h1536v-1536zM1663 129v1278h-1278v-1278h1278z" />
    <glyph glyph-name=".null" horiz-adv-x="0" 
 />
    <glyph glyph-name="nonmarkingreturn" horiz-adv-x="391" 
 />
    <glyph glyph-name="space" unicode=" " horiz-adv-x="391" 
 />
    <glyph glyph-name="exclam" unicode="!" horiz-adv-x="514" 
d="M164 0v276h186v-276h-186zM178 395l-20 1190h198l-18 -1190h-160z" />
    <glyph glyph-name="quotedbl" unicode="&#x22;" horiz-adv-x="692" 
d="M41 1063l25 491h186l-74 -491h-137zM440 1063l25 491h186l-73 -491h-138z" />
    <glyph glyph-name="numbersign" unicode="#" horiz-adv-x="1518" 
d="M840 0l43 403h-344l-43 -403h-166l45 403h-203v158h219l41 383h-260v156h279l47 422h164l-46 -422h342l50 422h163l-45 -422h217v-156h-235l-41 -383h276v-158h-294l-45 -403h-164zM942 944h-344l-41 -383h344z" />
    <glyph glyph-name="dollar" unicode="$" horiz-adv-x="1270" 
d="M541 -246v219q-60 3 -116.5 8t-104 11t-83 11.5t-53.5 10.5v148q91 -11 197.5 -19t236.5 -8q78 0 136.5 14t97.5 44t58.5 77.5t19.5 114.5q0 45 -9.5 81.5t-33 68t-63.5 59t-101 55.5l-260 117q-76 34 -134.5 73t-98 88t-60 110.5t-20.5 140.5q0 167 96.5 256.5
t294.5 107.5v209h178v-207q58 -2 113 -6t101 -10t81 -12t53 -11v-149q-35 4 -83 8.5t-103 8.5t-114 6.5t-114 2.5q-75 0 -133.5 -10t-98 -33.5t-60.5 -62.5t-21 -98q0 -44 9 -79t32.5 -65t63 -56.5t100.5 -53.5l262 -115q80 -35 139 -76t98 -91.5t58.5 -113.5t19.5 -143
q0 -180 -100.5 -284t-302.5 -124v-223h-178z" />
    <glyph glyph-name="percent" unicode="%" horiz-adv-x="2187" 
d="M2066 397q0 -207 -93 -312t-267 -105t-267 105t-93 312v117q0 207 93 311.5t267 104.5t267 -104.5t93 -311.5v-117zM1903 514q0 83 -15 136.5t-41.5 85t-62.5 43.5t-78 12t-78 -12t-62.5 -43.5t-41.5 -85t-15 -136.5v-117q0 -83 15 -136.5t41.5 -85t62.5 -44t78 -12.5
t78 12.5t62.5 44t41.5 85t15 136.5v117zM512 0l971 1522h184l-971 -1522h-184zM838 1012q0 -93 -19 -170.5t-61.5 -133t-111 -86t-167.5 -30.5q-100 0 -168.5 32t-111 88.5t-61.5 133.5t-19 166v112q0 90 19 167t61.5 133t111 88t168.5 32q99 0 167.5 -30.5t111 -86
t61.5 -132.5t19 -171v-112zM674 1124q0 79 -12 133t-36 87t-60.5 47t-86.5 14t-87 -15.5t-61 -49.5t-36 -87.5t-12 -128.5v-112q0 -79 12 -133t36 -87t61 -47t87 -14t86.5 14t60.5 47t36 87t12 133v112z" />
    <glyph glyph-name="ampersand" unicode="&#x26;" horiz-adv-x="1513" 
d="M1210 0l-125 133q-78 -75 -192.5 -118.5t-274.5 -43.5q-112 0 -203.5 23.5t-156 74t-100 130.5t-35.5 194q0 149 78.5 258t230.5 195q-42 46 -79 88.5t-64.5 86.5t-43.5 92.5t-16 107.5q0 172 110.5 248.5t334.5 76.5q41 0 88.5 -2t96 -6t97 -10t91.5 -15v-147
q-94 9 -192 12.5t-181 3.5q-68 0 -116.5 -7t-79 -25t-44.5 -48.5t-14 -78.5q0 -33 10 -64t32.5 -66t58.5 -78t89 -100l475 -514q28 73 42.5 159.5t19.5 187.5l-125 14v141h399v-141l-118 -14q-7 -132 -30.5 -250t-76.5 -217l229 -248v-33h-215zM537 733q-50 -29 -91 -61
t-70 -72t-45 -90.5t-16 -116.5q0 -138 77.5 -203t223.5 -65q128 0 218.5 31t150.5 88z" />
    <glyph glyph-name="quotesingle" unicode="'" horiz-adv-x="293" 
d="M41 1063l25 491h186l-74 -491h-137z" />
    <glyph glyph-name="parenleft" unicode="(" horiz-adv-x="729" 
d="M471 -424q-54 65 -112 160t-106 217t-79 269.5t-31 318.5q0 177 31 327.5t79 274t106 219t112 160.5h178q-72 -98 -131 -202.5t-101.5 -223.5t-65.5 -256t-23 -299q0 -157 23 -290.5t65.5 -251t101.5 -222t131 -201.5h-178z" />
    <glyph glyph-name="parenright" unicode=")" horiz-adv-x="729" 
d="M78 -424q73 97 132.5 201.5t102 223.5t65.5 255.5t23 298.5q0 157 -23 291t-65.5 251.5t-102 222t-132.5 202.5h180q54 -65 111.5 -160.5t105 -219t78.5 -274t31 -327.5q0 -171 -31 -318.5t-78.5 -269.5t-105 -217t-111.5 -160h-180z" />
    <glyph glyph-name="asterisk" unicode="*" horiz-adv-x="1090" 
d="M715 813l-88 121q-23 31 -43.5 63.5t-40.5 67.5q-19 -35 -40.5 -67.5t-41.5 -61.5l-86 -123l-131 94l88 123q20 29 45 59t53 58q-38 8 -75.5 18t-71.5 21l-144 45l49 153l144 -47q34 -11 71 -24.5t72 -30.5q-5 38 -7.5 77t-2.5 75v151h160v-151q0 -38 -3 -77t-10 -79
q38 19 75 32t71 25l143 49l49 -153l-143 -47q-34 -11 -72.5 -21t-79.5 -18q29 -28 54 -58t47 -59l88 -121z" />
    <glyph glyph-name="plus" unicode="+" horiz-adv-x="1438" 
d="M645 285v440h-440v149h440v441h150v-441h436v-149h-436v-440h-150z" />
    <glyph glyph-name="comma" unicode="," horiz-adv-x="567" 
d="M51 -182l191 465h215l-238 -465h-168z" />
    <glyph glyph-name="hyphen" unicode="-" horiz-adv-x="811" 
d="M152 522v154h505v-154h-505z" />
    <glyph glyph-name="period" unicode="." horiz-adv-x="516" 
d="M166 0v283h184v-283h-184z" />
    <glyph glyph-name="slash" unicode="/" horiz-adv-x="842" 
d="M20 0l625 1522h176l-622 -1522h-179z" />
    <glyph glyph-name="zero" unicode="0" horiz-adv-x="1307" 
d="M1188 612q0 -159 -36 -279t-104 -200.5t-168 -121t-227 -40.5q-128 0 -227 40.5t-167.5 121t-104 200.5t-35.5 279v293q0 160 35.5 280t104 200t167.5 120.5t227 40.5q127 0 227 -40.5t168 -120.5t104 -200t36 -280v-293zM999 905q0 135 -26 227t-72 148t-109.5 80
t-138.5 24q-74 0 -137.5 -24t-110 -80t-72.5 -148t-26 -227v-293q0 -135 26 -226.5t72.5 -148t110 -80.5t137.5 -24q75 0 138.5 24t109.5 80.5t72 148t26 226.5v293z" />
    <glyph glyph-name="one" unicode="1" horiz-adv-x="1145" 
d="M127 0v154l354 12v1175l-356 -114v164l405 143h138v-1368l352 -12v-154h-893z" />
    <glyph glyph-name="two" unicode="2" horiz-adv-x="1208" 
d="M131 0v193q0 125 25.5 214.5t81 161t144 133t214.5 129.5q95 52 155 93t93.5 80.5t46 80.5t12.5 93q0 58 -18.5 97.5t-60 63.5t-107.5 34.5t-160 10.5q-47 0 -98 -2t-102 -6t-100 -9.5t-91 -12.5v145q30 7 74 15.5t96.5 15.5t111.5 11.5t119 4.5q132 0 231 -21t164 -65.5
t97.5 -114.5t32.5 -167q0 -72 -18 -133.5t-63 -119.5t-120.5 -115t-190.5 -118q-120 -65 -195.5 -116.5t-117.5 -106t-57 -119.5t-15 -155v-29h758v-166h-942z" />
    <glyph glyph-name="three" unicode="3" horiz-adv-x="1223" 
d="M1102 412q0 -125 -36 -209t-104.5 -136t-167.5 -74t-225 -22q-63 0 -127.5 6.5t-121 15t-100.5 17.5t-66 15v141q27 -4 73.5 -9.5t102.5 -11t117.5 -9t119.5 -3.5q86 0 151 11t108.5 42t65 85.5t21.5 140.5v51q0 51 -7.5 96t-34 78.5t-77.5 52.5t-137 19h-440v157h440
q86 0 137 20.5t77.5 55.5t34 81t7.5 97q0 78 -16.5 129t-56 81t-106.5 42t-169 12q-55 0 -111 -2.5t-108.5 -7t-100 -9.5l-85.5 -9v145q10 2 51 9.5t99.5 15.5t126.5 14t132 6q135 0 235 -20.5t166 -69.5t99 -131t33 -205q0 -51 -10 -99.5t-32 -92t-57 -79.5t-85 -61
q51 -25 86 -59.5t56.5 -76.5t31.5 -90t10 -99v-51z" />
    <glyph glyph-name="four" unicode="4" horiz-adv-x="1337" 
d="M817 0v401h-721v193l695 928h215v-957h231v-164h-231v-401h-189zM817 1268l-532 -703h532v703z" />
    <glyph glyph-name="five" unicode="5" horiz-adv-x="1198" 
d="M1079 424q0 -123 -36 -209t-106 -140.5t-174 -79t-239 -24.5q-71 0 -139 6t-124.5 14.5t-97.5 16.5t-59 12v150q31 -4 78.5 -10t103.5 -12t116.5 -10.5t117.5 -4.5q102 0 173.5 15t115.5 49t64 90t20 137v59q0 75 -16 127.5t-57.5 85.5t-114 47.5t-185.5 14.5h-385
l66 764h823v-168h-664l-38 -434h206q144 0 248.5 -24.5t171.5 -77.5t99 -136t32 -199v-59z" />
    <glyph glyph-name="six" unicode="6" horiz-adv-x="1292" 
d="M1171 453q0 -104 -25 -180t-67 -129.5t-95 -87.5t-110 -52.5t-112 -25.5t-100 -7q-68 0 -135 7t-127 28.5t-111.5 62.5t-89 108t-59 164.5t-21.5 233.5v396q0 139 28.5 246.5t95 180.5t175.5 110.5t270 37.5q67 0 132.5 -5.5t121.5 -12.5t98.5 -15t63.5 -12v-147
q-30 4 -77.5 9t-103 9.5t-116 8t-115.5 3.5q-132 0 -208.5 -29.5t-116 -84t-50 -130.5t-10.5 -169v-72q38 11 84.5 19.5t94.5 14.5t94.5 9.5t83.5 3.5q64 0 126.5 -5.5t119 -21.5t104 -44t82.5 -73t55 -110t20 -153v-86zM983 530q0 86 -22 138.5t-64 80.5t-103 37t-139 9
q-31 0 -71 -2t-85.5 -6.5t-94.5 -12t-97 -18.5v-191q0 -133 25 -217t71 -132t111.5 -65.5t147.5 -17.5q64 0 122.5 18t102.5 56.5t70 99t26 146.5v77z" />
    <glyph glyph-name="seven" unicode="7" horiz-adv-x="1180" 
d="M217 0l698 1354h-809v168h986v-201l-664 -1321h-211z" />
    <glyph glyph-name="eight" unicode="8" horiz-adv-x="1339" 
d="M127 438q0 70 10.5 124.5t31.5 96.5t52 74t72 58q-74 44 -117 121.5t-43 197.5q0 93 21.5 161.5t59.5 117t89.5 79t111.5 48t125.5 24t131.5 6.5q64 0 128.5 -6.5t124 -24t110.5 -48t88.5 -79t59 -117t21.5 -161.5q0 -120 -43 -197.5t-117 -121.5q41 -26 72 -58t52 -74
t31.5 -96.5t10.5 -124.5q0 -111 -22 -189t-60.5 -130t-90.5 -81.5t-112.5 -44.5t-126.5 -18.5t-132 -3.5q-65 0 -130 3.5t-124.5 18.5t-111.5 44.5t-90.5 81.5t-60.5 129.5t-22 189.5zM530 711q-61 0 -102.5 -16t-66.5 -49t-35.5 -84.5t-10.5 -123.5q0 -104 26 -164.5
t73.5 -91.5t113 -40t144.5 -9q77 0 141 9t110.5 40t72.5 91.5t26 164.5q-1 72 -11.5 123.5t-35.5 84.5t-66 49t-102 16h-277zM807 870q61 0 102 16.5t65 47.5t34 75.5t10 100.5q0 91 -26.5 145t-73 82.5t-111.5 37.5t-141 9q-75 0 -138.5 -9t-110 -37.5t-72.5 -82.5
t-26 -145q0 -56 10 -100.5t34.5 -75.5t65 -47.5t101.5 -16.5h277z" />
    <glyph glyph-name="nine" unicode="9" horiz-adv-x="1292" 
d="M983 618q-38 -11 -84.5 -19.5t-94.5 -14.5t-94 -9.5t-83 -3.5q-64 0 -126.5 5.5t-119 21.5t-104.5 44.5t-83 73.5t-55 109.5t-20 153.5v86q0 104 25.5 180t67 129.5t95 87t110 52.5t112 25.5t100.5 6.5q68 0 134.5 -7t127 -28.5t111.5 -62t88.5 -107.5t59 -165t21.5 -234
v-395q0 -140 -28.5 -247.5t-95 -180.5t-175.5 -110.5t-270 -37.5q-68 0 -133 5.5t-120.5 12.5t-98 14.5t-64.5 12.5v148q30 -4 77.5 -9t103.5 -10t116 -8.5t115 -3.5q88 0 150.5 13.5t105.5 39t68.5 61.5t39 82t17.5 101t4 117v71zM983 952q0 133 -25 217t-71 132
t-111.5 65.5t-146.5 17.5q-65 0 -123 -18t-102.5 -56.5t-70.5 -99t-26 -145.5v-78q0 -86 22 -138t64 -80t103 -37t139 -9q31 0 71 1.5t85.5 6t94.5 12t97 19.5v190z" />
    <glyph glyph-name="colon" unicode=":" horiz-adv-x="528" 
d="M170 0v283h186v-283h-186zM170 844v282h186v-282h-186z" />
    <glyph glyph-name="semicolon" unicode=";" horiz-adv-x="549" 
d="M-2 -182l190 465h213l-241 -465h-162zM190 844v282h187v-282h-187z" />
    <glyph glyph-name="less" unicode="&#x3c;" horiz-adv-x="1438" 
d="M889 285l-594 516l594 514h252l-596 -514l596 -516h-252z" />
    <glyph glyph-name="equal" unicode="=" horiz-adv-x="1438" 
d="M260 500v151h916v-151h-916zM260 950v154h916v-154h-916z" />
    <glyph glyph-name="greater" unicode="&#x3e;" horiz-adv-x="1438" 
d="M545 285h-250l594 516l-594 514h250l596 -514z" />
    <glyph glyph-name="question" unicode="?" horiz-adv-x="967" 
d="M240 0v283h184v-283h-184zM240 395v86q0 65 6 119t27 106t61 106.5t108 121.5q59 57 97 101t59.5 81t30 72t8.5 74q0 58 -16.5 94.5t-49 57.5t-80 28.5t-108.5 7.5q-74 0 -156 -7.5t-166 -17.5v140q76 20 162.5 33.5t175.5 13.5q102 0 182 -18.5t134.5 -60t83 -108
t28.5 -163.5q0 -50 -10 -95.5t-35 -92.5t-66 -99t-102 -113q-69 -70 -108 -118t-58 -88.5t-23.5 -80.5t-4.5 -94v-86h-180z" />
    <glyph glyph-name="at" unicode="@" horiz-adv-x="1708" 
d="M1133 -188q-15 -3 -51 -8t-85.5 -10t-108 -9t-118.5 -4q-181 0 -306.5 41t-204 114.5t-113.5 175.5t-35 224q0 80 6.5 157t17.5 140q31 190 94.5 325t161.5 220.5t231 125t304 39.5q169 0 295 -39.5t209 -115t124 -185t41 -249.5t-36 -258t-121 -203.5t-224 -133.5
t-346 -48q-107 0 -184 19t-126.5 57t-73 95.5t-23.5 135.5q0 176 27.5 288.5t79.5 177t126 89t166 24.5q90 0 175 -11t159 -30l-68 -673q85 19 146.5 60.5t101 102t58 139t18.5 171.5q0 236 -128.5 350.5t-395.5 114.5q-139 0 -247.5 -32t-188.5 -103.5t-133 -186.5
t-81 -281q-11 -63 -17.5 -134t-6.5 -148q0 -94 23 -174.5t81.5 -139.5t158.5 -92.5t253 -33.5q61 0 123 2.5t114 5.5t87 6t41 4v-102zM1006 838q-15 2 -33 3.5t-37.5 2.5t-38.5 1.5t-35 0.5q-35 0 -65.5 -5t-56 -20.5t-46 -44t-34.5 -76t-21.5 -117t-7.5 -165.5
q0 -48 13 -80t40.5 -51t72 -27t107.5 -8h44t42 2z" />
    <glyph glyph-name="A" unicode="A" horiz-adv-x="1358" 
d="M1106 0l-158 498h-545l-161 -498h-191l498 1522h260l498 -1522h-201zM748 1114q-20 62 -35 122t-27 128h-20q-14 -68 -28 -128t-34 -122l-145 -444h432z" />
    <glyph glyph-name="B" unicode="B" horiz-adv-x="1309" 
d="M174 0v1522h401q139 0 252 -14.5t193.5 -58.5t124 -124.5t43.5 -212.5q0 -48 -12 -97t-37 -92.5t-64.5 -79.5t-93.5 -59q112 -43 163.5 -136.5t51.5 -219.5q0 -92 -22 -159.5t-62 -115t-97 -77.5t-127 -47t-151.5 -23t-171.5 -6h-391zM565 166q105 0 187.5 9t138.5 37
t85.5 79.5t29.5 136.5q0 64 -15.5 115.5t-54 88.5t-103.5 57t-165 20h-306v-543h203zM668 870q99 0 163 17.5t100.5 49.5t51 76.5t14.5 98.5q0 86 -28 134.5t-82 72.5t-132.5 29.5t-179.5 5.5h-213v-484h306z" />
    <glyph glyph-name="C" unicode="C" horiz-adv-x="1141" 
d="M1079 6q-23 -4 -61.5 -10t-85.5 -11.5t-100 -9.5t-105 -4q-87 0 -166.5 12t-147.5 41t-123.5 78t-94.5 123t-60.5 175t-21.5 235v252q0 133 21.5 234t60.5 174t94.5 121.5t123.5 77.5t147.5 40.5t166.5 11.5q52 0 105 -4t100 -9.5t85.5 -11.5t61.5 -10v-153
q-35 3 -78.5 6.5t-90 6.5t-94 5t-89.5 2q-108 0 -188 -24t-133 -81t-79 -151t-26 -235v-252q0 -141 26 -235.5t79 -152t133 -82t188 -24.5q42 0 89.5 2t94 4.5t90 6t78.5 6.5v-154z" />
    <glyph glyph-name="D" unicode="D" horiz-adv-x="1380" 
d="M174 0v1522h426q177 0 303.5 -45t207.5 -128t119 -200.5t38 -261.5v-248q0 -145 -35.5 -263t-115 -201.5t-206.5 -129t-311 -45.5h-426zM1077 887q0 130 -31 219t-93 144t-154 79.5t-215 24.5h-222v-1188h222q123 0 215 25t154 81.5t93 146.5t31 220v248z" />
    <glyph glyph-name="E" unicode="E" horiz-adv-x="1188" 
d="M174 0v1522h901v-168h-713v-480h670v-169h-670v-539h713v-166h-901z" />
    <glyph glyph-name="F" unicode="F" horiz-adv-x="1167" 
d="M174 0v1522h901v-168h-713v-480h670v-169h-670v-705h-188z" />
    <glyph glyph-name="G" unicode="G" horiz-adv-x="1298" 
d="M977 791h188v-777q-23 -5 -66.5 -12t-102 -14t-130 -12t-149.5 -5q-127 0 -237 31.5t-191.5 107t-128.5 201.5t-47 316v268q0 134 24 234t66 172.5t100 119.5t125 75t141.5 39t149.5 11q83 0 160 -5.5t137.5 -12.5t100.5 -13.5t48 -7.5v-151q-23 2 -56.5 4.5t-73 5
t-82 4.5t-81.5 4t-72.5 3t-54.5 1q-97 0 -178 -17t-139.5 -68.5t-91.5 -146.5t-33 -251v-268q0 -145 29 -239t85 -148.5t137.5 -75.5t186.5 -21q66 0 127.5 1.5t108.5 5.5v641z" />
    <glyph glyph-name="H" unicode="H" horiz-adv-x="1487" 
d="M1124 0v719h-762v-719h-188v1522h188v-633h762v633h189v-1522h-189z" />
    <glyph glyph-name="I" unicode="I" horiz-adv-x="537" 
d="M174 0v1522h188v-1522h-188z" />
    <glyph glyph-name="J" unicode="J" horiz-adv-x="535" 
d="M-104 -291h32q84 0 133 3t74 19.5t32 50t7 95.5v1645h186v-1645q0 -84 -15 -145t-51.5 -101.5t-96.5 -60t-150 -19.5q-19 0 -41.5 1.5t-44 4t-39 5.5t-26.5 6v141z" />
    <glyph glyph-name="K" unicode="K" horiz-adv-x="1298" 
d="M1010 0l-637 733v-733h-189v1522h189v-715l653 715h242l-686 -748l686 -774h-258z" />
    <glyph glyph-name="L" unicode="L" horiz-adv-x="1110" 
d="M174 0v1522h188v-1356h697v-166h-885z" />
    <glyph glyph-name="M" unicode="M" horiz-adv-x="1665" 
d="M1305 0v989q0 42 0.5 76.5t2 67.5t3.5 66.5t4 72.5h-4q-26 -63 -53.5 -119t-55.5 -115l-256 -546h-231l-250 546q-26 59 -53.5 117t-55.5 117h-4q1 -39 2.5 -72.5t3 -66t2 -67.5t0.5 -77v-989h-186v1522h248l315 -686q23 -50 46 -103t44 -102h4q22 51 47 104.5t48 104.5
l319 682h246v-1522h-186z" />
    <glyph glyph-name="N" unicode="N" horiz-adv-x="1446" 
d="M1004 0l-537 1092q-28 57 -61 123.5t-62 134.5h-4q5 -76 7.5 -156.5t2.5 -161.5v-1032h-176v1522h270l531 -1063q14 -28 29.5 -60.5t32 -66.5t32 -68t29.5 -65h4q-6 91 -8 176.5t-2 156.5v990h180v-1522h-268z" />
    <glyph glyph-name="O" unicode="O" horiz-adv-x="1401" 
d="M1288 651q0 -163 -38.5 -289.5t-113.5 -213.5t-184.5 -132t-251.5 -45t-251.5 45t-184 132t-113 213.5t-38.5 289.5v217q0 163 38.5 289.5t113 212.5t184 131t251.5 45t251.5 -45t184.5 -131t113.5 -212.5t38.5 -289.5v-217zM1098 868q0 140 -29.5 237t-82 158t-125.5 88
t-161 27q-87 0 -160 -27t-125.5 -88t-82 -158t-29.5 -237v-217q0 -140 29.5 -237t82 -158.5t125.5 -89t160 -27.5q88 0 161 27.5t125.5 89t82 158.5t29.5 237v217z" />
    <glyph glyph-name="P" unicode="P" horiz-adv-x="1239" 
d="M174 0v1522q74 0 147 1t144 1q96 0 185 -4t167 -19t142 -45.5t110 -83.5t71.5 -132.5t26.5 -192.5q0 -113 -29 -191t-82 -128.5t-127 -78t-163.5 -40.5t-191.5 -15t-212 -2v-592h-188zM424 758q138 0 241.5 5.5t172.5 33.5t104 86.5t35 163.5q-1 112 -33.5 174t-97 91.5
t-160.5 35.5t-223 6h-101v-596h62z" />
    <glyph glyph-name="Q" unicode="Q" horiz-adv-x="1401" 
d="M1104 -365q-11 -2 -35 -5.5t-55 -6.5t-67 -5.5t-70 -2.5q-60 0 -109.5 9.5t-85 36.5t-55 76t-19.5 128v112q-120 15 -212 66t-155 136t-95.5 203.5t-32.5 268.5v217q0 163 38.5 289.5t113 212.5t184 131t251.5 45t251.5 -45t184.5 -131t113.5 -212.5t38.5 -289.5v-217
q0 -149 -33 -267.5t-96 -204t-155 -136.5t-211 -66v-112q0 -31 4.5 -50.5t19 -31t41.5 -15.5t72 -4h174v-129zM1098 868q0 140 -29.5 237t-82 158t-125.5 88t-161 27q-87 0 -160 -27t-125.5 -88t-82 -158t-29.5 -237v-217q0 -140 29.5 -237t82 -158.5t125.5 -89t160 -27.5
q88 0 161 27.5t125.5 89t82 158.5t29.5 237v217z" />
    <glyph glyph-name="R" unicode="R" horiz-adv-x="1305" 
d="M1040 0l-358 594q-31 -2 -70 -2h-73h-177v-592h-188v1522h358q88 0 169.5 -7.5t152 -26.5t128.5 -52t99 -84.5t63.5 -124t22.5 -170.5q0 -92 -19.5 -161t-56.5 -120t-89.5 -85.5t-118.5 -57.5l381 -633h-224zM539 758q111 0 193.5 13t137 46.5t81 91.5t26.5 148
q0 95 -28 153.5t-84 90.5t-139 42.5t-194 10.5h-170v-596h177z" />
    <glyph glyph-name="S" unicode="S" horiz-adv-x="1198" 
d="M147 162q91 -11 198 -19t237 -8q77 0 135.5 14t97.5 44t58.5 77.5t19.5 114.5q0 45 -9.5 81.5t-33 68t-63.5 59t-101 55.5l-260 117q-76 34 -134.5 73t-98 88t-60 110.5t-20.5 140.5q0 188 122.5 278t374.5 90q69 0 135.5 -4.5t122.5 -10.5t98.5 -13t63.5 -13v-149
q-35 4 -83 8.5t-103 8.5t-114 6.5t-114 2.5q-75 0 -133.5 -10t-98 -33.5t-60.5 -62.5t-21 -98q0 -44 9 -79t32.5 -65t63 -56.5t100.5 -53.5l262 -115q80 -35 139 -76t98 -91.5t58.5 -113.5t19.5 -143q0 -198 -125.5 -306t-377.5 -108q-69 0 -138 4.5t-128 11.5t-103.5 14.5
t-65.5 12.5v148z" />
    <glyph glyph-name="T" unicode="T" horiz-adv-x="1249" 
d="M530 0v1354h-469v168h1127v-168h-469v-1354h-189z" />
    <glyph glyph-name="U" unicode="U" horiz-adv-x="1432" 
d="M1081 1522h187v-889q0 -330 -139 -496t-412 -166q-553 0 -553 662v889h188v-869q0 -138 18 -235.5t60 -159t112 -89.5t175 -28q103 0 173 28.5t112.5 90t60.5 159t18 234.5v869z" />
    <glyph glyph-name="V" unicode="V" horiz-adv-x="1378" 
d="M563 0l-502 1522h201l361 -1116q21 -66 37.5 -135t31.5 -128h4q14 60 30 128.5t38 134.5l360 1116h193l-502 -1522h-252z" />
    <glyph glyph-name="W" unicode="W" horiz-adv-x="1843" 
d="M1176 0l-207 942q-11 50 -21.5 97.5t-21.5 97.5h-6q-11 -50 -21.5 -97.5t-21.5 -97.5l-205 -942h-305l-275 1522h201l178 -1069q12 -76 24.5 -152t24.5 -151h10q17 75 33 150t33 151l182 845h295l184 -852q16 -74 32 -147t32 -147h10q11 78 22 149.5t25 153.5l181 1069
h192l-274 -1522h-301z" />
    <glyph glyph-name="X" unicode="X" horiz-adv-x="1376" 
d="M1085 0l-413 627l-402 -627h-209l506 774l-501 748h223l409 -615l398 615h209l-506 -756l516 -766h-230z" />
    <glyph glyph-name="Y" unicode="Y" horiz-adv-x="1284" 
d="M549 0v602l-508 920h207l276 -502q29 -54 61.5 -118t55.5 -124h12q11 29 26 60.5t31.5 63t33.5 61.5t32 57l275 502h192l-508 -920v-602h-186z" />
    <glyph glyph-name="Z" unicode="Z" horiz-adv-x="1278" 
d="M113 0v209l821 1145h-791v168h994v-207l-820 -1149h848v-166h-1052z" />
    <glyph glyph-name="bracketleft" unicode="[" horiz-adv-x="827" 
d="M233 -426v1948h476v-158h-293v-1636h293v-154h-476z" />
    <glyph glyph-name="backslash" unicode="\" horiz-adv-x="905" 
d="M674 0l-623 1522h176l625 -1522h-178z" />
    <glyph glyph-name="bracketright" unicode="]" horiz-adv-x="827" 
d="M117 -426v154h293v1638h-293v156h475v-1948h-475z" />
    <glyph glyph-name="asciicircum" unicode="^" horiz-adv-x="1438" 
d="M1010 850l-293 586l-291 -586h-203l338 678h311l338 -678h-200z" />
    <glyph glyph-name="underscore" unicode="_" horiz-adv-x="1176" 
d="M-12 -217v121h1198v-121h-1198z" />
    <glyph glyph-name="grave" unicode="`" 
d="M418 1262l-307 315h223l268 -315h-184z" />
    <glyph glyph-name="a" unicode="a" horiz-adv-x="1116" 
d="M797 0v76q-26 -18 -61.5 -36.5t-80.5 -33.5t-99.5 -25t-117.5 -10q-79 0 -141.5 18.5t-105.5 57.5t-66 99.5t-23 144.5v41q0 111 36.5 179.5t104.5 106t163.5 50t214.5 12.5h167v82q0 73 -9.5 119t-38 72t-80 36t-136.5 10q-47 0 -90 -2t-85 -5t-84.5 -7.5t-88.5 -9.5
v131q12 4 46 12.5t82.5 16.5t109 14t125.5 6q140 0 225.5 -25.5t132 -75t61.5 -123t15 -169.5v-762h-176zM788 541h-167q-89 0 -152.5 -7.5t-104 -29.5t-59 -63.5t-18.5 -108.5v-56q0 -47 14 -78t39 -49.5t59.5 -26t75.5 -7.5q50 0 98.5 9.5t90.5 23.5t74 29.5t50 27.5v336z
" />
    <glyph glyph-name="b" unicode="b" horiz-adv-x="1184" 
d="M1071 487q0 -135 -31 -232.5t-93.5 -160.5t-156.5 -93t-219 -30q-52 0 -96.5 1.5t-91.5 5.5t-101 9t-124 13v1585h184v-502q75 42 154.5 59t148.5 17q218 0 322 -117.5t104 -361.5v-193zM887 682q0 85 -14.5 145t-46 97.5t-81.5 55t-122 17.5q-22 0 -56.5 -2.5t-73.5 -9
t-79 -18t-72 -29.5v-793q38 -3 98 -6.5t135 -3.5q79 0 137.5 17.5t97.5 59t58 109t19 168.5v193z" />
    <glyph glyph-name="c" unicode="c" horiz-adv-x="977" 
d="M885 10q-15 -5 -44 -11.5t-70 -12.5t-94 -10.5t-114 -4.5q-115 0 -200 34t-140.5 99.5t-82.5 160t-27 214.5v170q0 121 27 215.5t82.5 159t140.5 98t200 33.5q61 0 114 -4.5t94 -10.5t70 -13t44 -11v-139q-103 11 -176.5 15.5t-118.5 4.5q-68 0 -122 -15t-92 -54
t-58.5 -106.5t-20.5 -172.5v-170q0 -105 20.5 -173t58.5 -107t92 -54.5t122 -15.5q45 0 118.5 5t176.5 16v-140z" />
    <glyph glyph-name="d" unicode="d" horiz-adv-x="1184" 
d="M848 0v57q-57 -34 -136.5 -60t-179.5 -26q-99 0 -177 28.5t-131.5 88t-82 150t-28.5 215.5v194q0 151 35.5 249.5t98 156t147.5 80t184 22.5q68 0 132 -7.5t132 -21.5v459h184v-1585h-178zM842 973q-35 6 -70 11t-68 8t-62 5t-52 2q-68 0 -122.5 -12.5t-92.5 -50.5
t-58 -107t-20 -182v-194q0 -168 64.5 -246t205.5 -78q76 0 144 19.5t131 50.5v774z" />
    <glyph glyph-name="e" unicode="e" horiz-adv-x="1186" 
d="M1030 16q-59 -15 -160 -30t-241 -15q-150 0 -249.5 33.5t-158.5 101.5t-83.5 169.5t-24.5 238.5v86q0 133 29.5 236t89 174t149 108t209.5 37q249 0 366 -147t117 -430v-82h-776v-23q0 -73 9.5 -135.5t44 -108.5t102 -72t184.5 -26q47 0 99.5 2.5t104.5 7t100.5 10.5
t88.5 13v-148zM883 668q0 34 -3.5 71.5t-14 74t-30 69.5t-51.5 58t-79.5 39.5t-112.5 14.5q-64 0 -111 -14.5t-79.5 -39.5t-52.5 -58t-31 -69.5t-15 -74t-4 -71.5v-21h584v21z" />
    <glyph glyph-name="f" unicode="f" horiz-adv-x="823" 
d="M254 0v973l-213 16v137h213v136q0 65 8 128t37.5 112.5t87.5 79.5t158 30q66 0 122.5 -9t94.5 -20v-125q-37 2 -88.5 5t-104.5 3q-47 0 -73.5 -12t-39 -36.5t-15.5 -63t-3 -92.5v-136h320v-153h-320v-973h-184z" />
    <glyph glyph-name="g" unicode="g" horiz-adv-x="1184" 
d="M842 -6q-14 -2 -39.5 -5.5t-57 -7t-66 -6t-65.5 -2.5q-119 0 -212 26t-157.5 86.5t-98 160.5t-33.5 248v141q0 130 28.5 227.5t89.5 162.5t157.5 97.5t232.5 32.5q50 0 103.5 -2.5t106.5 -6.5t103 -9t92 -11v-1189q0 -87 -17 -159.5t-65 -124.5t-132.5 -81t-219.5 -29
q-65 0 -132.5 5.5t-126 12t-100.5 13.5t-55 10v133q93 -6 199.5 -11t214.5 -5q84 0 133.5 15t75.5 44.5t33.5 73.5t7.5 103v57zM842 985q-9 1 -30 3.5t-51 5t-66 4t-74 1.5q-95 0 -157.5 -22.5t-99.5 -68t-52 -114t-15 -159.5v-141q0 -106 17.5 -176.5t56 -112.5t99 -59
t146.5 -17q31 0 66.5 2t67 5t56.5 6t36 5v838z" />
    <glyph glyph-name="h" unicode="h" horiz-adv-x="1221" 
d="M883 0v713q0 83 -11.5 137.5t-37 86.5t-66 45t-98.5 13q-48 0 -95.5 -7.5t-90.5 -19.5t-80 -26t-64 -27v-915h-182v1585h182v-522q27 14 64.5 30t84.5 30t101.5 23t116.5 9q184 0 272 -107.5t88 -328.5v-719h-184z" />
    <glyph glyph-name="i" unicode="i" horiz-adv-x="524" 
d="M170 0v1126h184v-1126h-184zM170 1335v250h186v-250h-186z" />
    <glyph glyph-name="j" unicode="j" horiz-adv-x="524" 
d="M-68 -311q20 0 52 -1t69 -1q38 0 61 8.5t35.5 29t16.5 54t4 84.5v1263h184v-1263q0 -90 -14.5 -151.5t-47.5 -99t-87.5 -53.5t-134.5 -16q-20 0 -41 1t-40.5 2.5t-34.5 3.5t-22 4v135zM170 1335v250h186v-250h-186z" />
    <glyph glyph-name="k" unicode="k" horiz-adv-x="1069" 
d="M795 0l-455 559v-559h-182v1585h182v-967l453 508h237l-487 -534l495 -592h-243z" />
    <glyph glyph-name="l" unicode="l" horiz-adv-x="522" 
d="M170 0v1585h182v-1585h-182z" />
    <glyph glyph-name="m" unicode="m" horiz-adv-x="1753" 
d="M1415 0v748q0 59 -2.5 105t-18.5 78t-50 49t-97 17q-59 0 -134.5 -25t-149.5 -69q6 -40 7 -79t1 -76v-748h-185v748q0 59 -2.5 105t-16.5 78t-45.5 49t-88.5 17q-37 0 -75.5 -8.5t-77 -22.5t-74 -31.5t-66.5 -35.5v-899h-182v1126h182v-88q69 51 154.5 84t181.5 33
q98 0 157 -33t91 -88q99 65 184.5 93t163.5 28q82 0 138 -18t92 -49t56 -71.5t29 -85.5t10.5 -92.5t1.5 -90.5v-748h-184z" />
    <glyph glyph-name="n" unicode="n" horiz-adv-x="1221" 
d="M883 0v719q0 77 -7.5 130t-28.5 86t-58 47.5t-95 14.5q-66 0 -154 -25t-200 -75v-897h-182v1126h182v-88q98 51 189.5 84t185.5 33q112 0 181 -29.5t107 -85.5t51 -137t13 -184v-719h-184z" />
    <glyph glyph-name="o" unicode="o" horiz-adv-x="1186" 
d="M1073 481q0 -123 -30.5 -218t-91 -160t-150.5 -98.5t-209 -33.5t-208.5 33.5t-149.5 98.5t-90.5 160t-30.5 218v164q0 246 121 378t358 132q238 0 359.5 -132t121.5 -378v-164zM889 645q0 91 -17.5 157t-53.5 108.5t-92 62.5t-134 20q-152 0 -223.5 -82.5t-71.5 -265.5
v-164q0 -91 17.5 -157t53.5 -108.5t91.5 -62.5t132.5 -20q155 0 226 83t71 265v164z" />
    <glyph glyph-name="p" unicode="p" horiz-adv-x="1182" 
d="M158 -430v1556h176v-75q75 52 160.5 78t167.5 26q97 0 172.5 -28.5t127.5 -91.5t79.5 -162.5t27.5 -241.5v-111q0 -163 -36.5 -269t-100.5 -168.5t-151.5 -87t-188.5 -24.5q-29 0 -62 2.5t-66.5 7t-65.5 10.5t-58 13v-434h-182zM887 631q0 103 -16 172.5t-48 111.5
t-79.5 60t-110.5 18q-33 0 -64 -4t-65.5 -13.5t-74 -25.5t-89.5 -41v-751q69 -14 132 -22.5t120 -8.5q67 0 122 15t93 57.5t59 119.5t21 201v111z" />
    <glyph glyph-name="q" unicode="q" horiz-adv-x="1184" 
d="M844 -430v481q-96 -45 -182 -62.5t-160 -17.5q-99 0 -172 28.5t-121.5 91t-72 162.5t-23.5 243v112q0 162 32 267.5t95.5 168t159 87t223.5 24.5q51 0 94.5 -1.5t89 -5t98 -9.5t121.5 -15v-1554h-182zM842 983q-20 1 -49 3t-60.5 3.5t-62 2.5t-52.5 1q-81 0 -141 -12.5
t-100 -52.5t-60 -116.5t-20 -203.5v-112q0 -102 11.5 -171t38.5 -112t72 -61.5t113 -18.5q47 0 127.5 13t182.5 55v782z" />
    <glyph glyph-name="r" unicode="r" horiz-adv-x="770" 
d="M158 0v1126h180v-90q80 63 181.5 91t219.5 28v-164q-55 0 -112 -7.5t-110 -20t-99 -30t-78 -38.5v-895h-182z" />
    <glyph glyph-name="s" unicode="s" horiz-adv-x="987" 
d="M117 158q25 -2 66 -7t89.5 -10t102 -8.5t104.5 -3.5q72 0 119 10t74.5 29t38 47.5t10.5 65.5t-8.5 63.5t-33 49.5t-69 46t-116.5 54l-82 34q-81 35 -140 70.5t-96.5 77t-55.5 90t-18 108.5q0 142 98 211.5t310 69.5q57 0 111.5 -4.5t100 -11t79.5 -13.5t49 -12v-137
q-45 4 -91.5 8t-90 6.5t-82.5 4t-68 1.5q-62 0 -105.5 -4.5t-71.5 -18t-41 -37.5t-13 -63q0 -33 8.5 -57.5t30 -46t59.5 -43t98 -47.5l82 -35q98 -44 163.5 -81t104.5 -77.5t55.5 -88.5t16.5 -113q0 -61 -18.5 -117.5t-66 -100t-129 -70t-206.5 -26.5q-59 0 -118.5 5.5
t-110.5 12.5t-88 14.5t-51 12.5v142z" />
    <glyph glyph-name="t" unicode="t" horiz-adv-x="825" 
d="M764 2q-12 -4 -33.5 -9t-49.5 -10t-60 -8.5t-64 -3.5q-77 0 -130 15t-86 48.5t-47.5 88.5t-14.5 135v715l-228 16v137h228v293h184v-293h301v-153h-301v-707q0 -48 3 -76.5t15 -44.5t35 -21t62 -5q24 0 51 1t52.5 2.5t47.5 3t35 3.5v-127z" />
    <glyph glyph-name="u" unicode="u" horiz-adv-x="1221" 
d="M879 0v88q-113 -57 -209 -87t-183 -30q-104 0 -169 34t-101.5 93t-49.5 138.5t-13 171.5v718h182v-718q0 -77 7.5 -130t28.5 -86t58 -48t96 -15q66 0 153 25.5t200 74.5v897h184v-1126h-184z" />
    <glyph glyph-name="v" unicode="v" horiz-adv-x="1098" 
d="M422 0l-375 1126h199l215 -692q26 -83 47.5 -157.5t44.5 -151.5q20 77 40 150.5t46 158.5l213 692h199l-375 -1126h-254z" />
    <glyph glyph-name="w" unicode="w" horiz-adv-x="1702" 
d="M1126 0l-208 676q-25 80 -39.5 135t-22.5 92h-8q-8 -37 -22.5 -92t-39.5 -135l-208 -676h-261l-256 1126h189l149 -696q16 -74 28 -147t17 -144h11q21 76 39 149.5t38 139.5l187 606h266l186 -606q20 -66 38.5 -139.5t39.5 -149.5h11q5 71 17 144t28 147l149 696h186
l-254 -1126h-260z" />
    <glyph glyph-name="x" unicode="x" horiz-adv-x="1094" 
d="M840 0l-295 430l-291 -430h-207l399 573l-376 553h206l279 -409l272 409h205l-381 -551l396 -575h-207z" />
    <glyph glyph-name="y" unicode="y" horiz-adv-x="1120" 
d="M494 0l-437 1126h203l229 -632q13 -38 24.5 -72.5t22.5 -70t22.5 -73.5t25.5 -83q10 45 20 83t20.5 73t21.5 70.5t24 74.5l207 630h196l-428 -1226q-29 -81 -59 -147t-72 -112.5t-101.5 -72t-146.5 -25.5q-72 0 -131 7.5t-88 13.5v141q33 -2 60 -3.5t51.5 -2.5t49 -1.5
t52.5 -0.5q42 0 70 11.5t50 37.5t41 68t42 104z" />
    <glyph glyph-name="z" unicode="z" horiz-adv-x="999" 
d="M82 0v207l627 766h-600v153h796v-190l-637 -784h639v-152h-825z" />
    <glyph glyph-name="braceleft" unicode="{" horiz-adv-x="844" 
d="M590 -430q-110 0 -177.5 19.5t-105 56t-50.5 89.5t-13 120v376q0 52 -6 87.5t-21.5 62.5t-41 50t-64.5 50v129q39 27 64.5 50t41 50t21.5 62t6 86v379q0 69 13 122t50.5 89.5t105 55t177.5 18.5h129v-156h-129q-56 0 -89 -5.5t-49.5 -19.5t-21 -39t-4.5 -65v-379
q0 -59 -8 -105.5t-25.5 -84t-44.5 -67.5t-65 -56q37 -27 64.5 -57.5t44.5 -68t25.5 -84t8.5 -104.5v-376q0 -41 4.5 -66.5t21 -40t49.5 -19.5t89 -5h131v-154h-131z" />
    <glyph glyph-name="bar" unicode="|" horiz-adv-x="647" 
d="M231 -430v1952h183v-1952h-183z" />
    <glyph glyph-name="braceright" unicode="}" horiz-adv-x="844" 
d="M123 -430v154h131q56 0 88.5 5t49.5 19.5t21.5 40t4.5 66.5v376q0 58 8.5 104.5t25.5 84t44 68t65 57.5q-38 26 -65.5 56t-44.5 67.5t-25 84t-8 105.5v379q0 40 -4.5 65t-21.5 39t-49.5 19.5t-88.5 5.5h-129v156h129q110 0 177.5 -18.5t105 -55t50.5 -89.5t13 -122v-379
q0 -51 6 -86t21.5 -62t41 -50t64.5 -50v-129q-39 -27 -64.5 -50t-41 -50t-21.5 -62.5t-6 -87.5v-376q0 -67 -13 -120t-50.5 -89.5t-105 -56t-177.5 -19.5h-131z" />
    <glyph glyph-name="asciitilde" unicode="~" horiz-adv-x="1438" 
d="M1196 981q0 -62 -10 -113.5t-35.5 -89.5t-69.5 -59t-112 -21q-66 0 -123 18t-113 64l-129 105q-19 16 -34.5 28t-30 20.5t-29.5 12.5t-33 4q-29 0 -46.5 -9t-27 -27t-13 -44.5t-3.5 -60.5v-92h-147v92q0 64 12 116.5t40 90t73.5 58t113.5 20.5q31 0 57.5 -6t51 -18
t49 -30t53.5 -41l123 -98q35 -28 70.5 -43.5t77.5 -15.5q30 0 47.5 10t26.5 28t11.5 43.5t2.5 57.5v96h147v-96z" />
    <glyph glyph-name="uni00A0" unicode="&#xa0;" horiz-adv-x="391" 
 />
    <glyph glyph-name="exclamdown" unicode="&#xa1;" horiz-adv-x="514" 
d="M158 -461l20 1190h160l18 -1190h-198zM164 848v276h186v-276h-186z" />
    <glyph glyph-name="cent" unicode="&#xa2;" horiz-adv-x="1016" 
d="M481 -246v223q-182 26 -270 155.5t-88 346.5v170q0 217 88 345.5t270 154.5v219h168v-215q94 -5 157.5 -17t88.5 -20v-139q-103 11 -176.5 15.5t-118.5 4.5q-68 0 -122 -15t-92 -54t-58.5 -106.5t-20.5 -172.5v-170q0 -105 20.5 -173t58.5 -107t92 -54.5t122 -15.5
q45 0 118.5 5t176.5 16v-140q-25 -8 -88.5 -20t-157.5 -17v-219h-168z" />
    <glyph glyph-name="sterling" unicode="&#xa3;" horiz-adv-x="1278" 
d="M201 0v143q27 28 44.5 62t28 68.5t15 67.5t4.5 60v314h-160v155h160v156q0 127 18.5 224.5t69.5 163t141 99t232 33.5q69 0 130 -4.5t111.5 -10.5t88 -13t59.5 -13v-147q-21 2 -61 6t-91.5 8t-109.5 7t-115 3q-96 0 -152.5 -18t-86 -59.5t-38 -110t-8.5 -168.5v-156h510
v-155h-510v-314q0 -63 -18 -125t-55 -116h735v-160h-942z" />
    <glyph glyph-name="currency" unicode="&#xa4;" horiz-adv-x="1335" 
d="M1051 264l-156 154q-51 -32 -110.5 -50t-116.5 -18q-60 0 -118.5 16.5t-111.5 51.5l-155 -152l-127 127l153 154q-32 51 -49.5 111.5t-17.5 117.5q0 62 16 119.5t51 110.5l-153 153l127 127l155 -151q53 34 112 49.5t118 15.5q60 0 118 -15.5t111 -49.5l154 149l129 -125
l-154 -153q32 -54 50 -112.5t18 -117.5q0 -60 -17 -118.5t-51 -110.5l154 -154zM668 498q54 0 103.5 22t87 59.5t59.5 88.5t22 108q0 58 -22 108.5t-59.5 88.5t-87 60t-103.5 22q-56 0 -105.5 -22t-86.5 -60t-59 -88.5t-22 -108.5q0 -57 22 -108t59.5 -88.5t87 -59.5
t104.5 -22z" />
    <glyph glyph-name="yen" unicode="&#xa5;" horiz-adv-x="1329" 
d="M571 0v489h-465v148h445l-111 203h-334v147h252l-295 535h207l277 -502q29 -54 61.5 -118t55.5 -124h12q11 29 26 60.5t31.5 63t33.5 61.5t32 57l274 502h193l-295 -535h250v-147h-332l-113 -203h445v-148h-463v-489h-187z" />
    <glyph glyph-name="brokenbar" unicode="&#xa6;" horiz-adv-x="647" 
d="M231 -424v811h183v-811h-183zM231 713v809h183v-809h-183z" />
    <glyph glyph-name="section" unicode="&#xa7;" horiz-adv-x="1327" 
d="M215 -250q27 -3 73.5 -7.5t103.5 -8.5t121 -7t126 -3q91 0 150.5 15.5t94.5 45t49.5 73.5t14.5 101q0 42 -6 76.5t-29.5 67t-70.5 67t-129 76.5l-258 133q-75 38 -127.5 80t-85.5 90t-48.5 103t-15.5 120q0 42 11 99t40 110q-24 38 -37.5 90.5t-13.5 114.5q0 88 28 155.5
t88 113t154.5 68.5t227.5 23q68 0 131.5 -4t118 -10t98 -13.5t72.5 -13.5v-155q-29 2 -74.5 6.5t-100 9t-115.5 7.5t-122 3q-93 0 -153 -12t-94.5 -35.5t-48 -59t-13.5 -83.5q0 -42 8 -76t30.5 -64.5t63.5 -60t107 -61.5l247 -121q94 -45 155.5 -92t97.5 -97t50.5 -105.5
t14.5 -117.5q0 -43 -10 -95.5t-47 -117.5q57 -98 57 -219q0 -84 -27.5 -158t-87.5 -129t-155 -86.5t-230 -31.5q-68 0 -136.5 4.5t-127.5 10.5t-104 13t-66 12v156zM504 760q-32 16 -54.5 29.5t-39 25t-29.5 22t-27 21.5v-61q0 -60 5.5 -97.5t25.5 -65t58.5 -51t103.5 -55.5
l254 -127q38 -18 80 -46.5t77 -51.5v51q0 54 -5.5 92.5t-26.5 69.5t-62 59.5t-112 63.5z" />
    <glyph glyph-name="dieresis" unicode="&#xa8;" 
d="M621 1317v242h165v-242h-165zM152 1317v242h167v-242h-167z" />
    <glyph glyph-name="copyright" unicode="&#xa9;" horiz-adv-x="1731" 
d="M860 27q-155 0 -286.5 50t-226.5 145.5t-148.5 234t-53.5 315.5q0 175 53.5 313t148.5 234t226.5 146.5t286.5 50.5q156 0 287 -50.5t225.5 -146.5t147.5 -234t53 -313q0 -177 -53 -315.5t-147.5 -234t-225.5 -145.5t-287 -50zM860 162q124 0 228 41.5t179 120.5
t116.5 192t41.5 256q0 141 -41.5 253.5t-116.5 191t-179 120t-228 41.5q-125 0 -228.5 -41.5t-177.5 -120t-115.5 -191t-41.5 -253.5q0 -143 41.5 -256t115.5 -192t177.5 -120.5t228.5 -41.5zM1102 354q-16 -5 -43 -8.5t-59 -6t-65.5 -4t-62.5 -1.5q-180 0 -275 96t-95 279
v127q0 186 95 279t275 93q29 0 62.5 -1.5t65.5 -4t59 -6.5t43 -8v-131q-65 8 -120.5 11t-100.5 3q-63 0 -104 -12.5t-65.5 -40.5t-34 -73t-9.5 -109v-127q0 -64 9.5 -109t34 -73.5t65.5 -42t104 -13.5q45 0 100.5 3t120.5 11v-131z" />
    <glyph glyph-name="ordfeminine" unicode="&#xaa;" horiz-adv-x="887" 
d="M578 889v49q-17 -11 -41 -22.5t-54.5 -21.5t-66.5 -16t-78 -6q-48 0 -88.5 11.5t-70 36t-46 62t-16.5 89.5v21q0 71 27.5 113t75 63.5t111.5 28t136 6.5h102v38q0 41 -6 67.5t-24 41.5t-50.5 21t-85.5 6q-29 0 -63.5 -2t-67.5 -4t-61 -5t-43 -4v97q11 3 35.5 8.5t59 10.5
t76.5 9t87 4q91 0 149 -15.5t90 -46.5t44 -78t12 -110v-452h-143zM571 1204h-104q-56 0 -94.5 -3.5t-62.5 -15t-35 -33t-11 -58.5v-27q0 -28 9 -44t24.5 -24t37 -10t46.5 -2q29 0 58.5 5.5t55 13.5t45.5 16.5t31 15.5v166z" />
    <glyph glyph-name="guillemotleft" unicode="&#xab;" horiz-adv-x="1384" 
d="M1051 166l-334 426l334 422h217l-324 -422l324 -426h-217zM449 166l-334 426l334 422h217l-324 -422l324 -426h-217z" />
    <glyph glyph-name="logicalnot" unicode="&#xac;" horiz-adv-x="1438" 
d="M1022 500v450h-762v154h916v-604h-154z" />
    <glyph glyph-name="uni00AD" unicode="&#xad;" horiz-adv-x="811" 
d="M152 522v154h505v-154h-505z" />
    <glyph glyph-name="registered" unicode="&#xae;" horiz-adv-x="1397" 
d="M694 395q-126 0 -227.5 41.5t-173 117.5t-110 183t-38.5 238q0 132 38.5 239t110 182.5t173 116.5t227.5 41t227.5 -41t173 -116.5t110 -182.5t38.5 -239q0 -131 -38.5 -238t-110 -183t-173 -117.5t-227.5 -41.5zM694 508q99 0 177.5 31.5t133.5 91.5t84 146.5t29 197.5
q0 109 -29 195.5t-84 146.5t-133.5 91.5t-177.5 31.5q-100 0 -179 -31.5t-134 -91.5t-84 -146.5t-29 -195.5q0 -111 29 -197.5t84 -146.5t134 -91.5t179 -31.5zM834 666l-164 243h-35h-35v-243h-129v657q28 1 48 1.5t39.5 0.5h40.5h50q61 0 114 -7.5t92 -29t61 -60.5
t22 -102v-6q0 -148 -131 -188l182 -266h-155zM807 1126q0 33 -10 52t-30 28.5t-49.5 12t-68.5 2.5h-49v-211h51q79 0 117.5 22t38.5 88v6z" />
    <glyph glyph-name="glyph113" unicode="&#xaf;" 
d="M117 1341v144h702v-144h-702z" />
    <glyph glyph-name="degree" unicode="&#xb0;" horiz-adv-x="930" 
d="M111 1190q0 73 27.5 137.5t75.5 112.5t112.5 76t138.5 28t139 -28t113 -76t76 -112.5t28 -137.5q0 -74 -28 -138t-76 -111.5t-113 -75t-139 -27.5t-138.5 27.5t-112.5 75t-75.5 111.5t-27.5 138zM463 985q42 0 79 15.5t64.5 42.5t43.5 64.5t16 82.5t-16 83t-43.5 65
t-64.5 42t-79 15t-78.5 -15t-63.5 -42t-43 -65t-16 -83t16 -82.5t43 -64.5t63.5 -42.5t78.5 -15.5z" />
    <glyph glyph-name="plusminus" unicode="&#xb1;" horiz-adv-x="1438" 
d="M211 0v152h1012v-152h-1012zM645 346v440h-440v150h440v440h150v-440h436v-150h-436v-440h-150z" />
    <glyph glyph-name="two.superior" unicode="&#xb2;" horiz-adv-x="911" 
d="M125 680v115q0 79 16 136t51.5 101.5t92.5 82t139 77.5q65 31 103.5 54.5t58 44t25 41.5t5.5 48q0 59 -43.5 83t-146.5 24q-39 0 -81.5 -2t-82 -4.5t-72 -5.5t-51.5 -5v111q12 3 44 8t74 10.5t91 9t96 3.5q171 0 255.5 -54t84.5 -174q0 -47 -13 -85t-43 -72.5t-80 -67.5
t-124 -69q-74 -37 -120 -65.5t-71 -57t-33.5 -62.5t-8.5 -82v-12h481v-131h-647z" />
    <glyph glyph-name="three.superior" unicode="&#xb3;" horiz-adv-x="905" 
d="M131 805q19 -2 50 -4.5t68.5 -5.5t78.5 -5t80 -2q51 0 88.5 6t63 22.5t38 46t12.5 75.5q0 36 -4.5 64t-21 47.5t-47.5 30t-84 10.5h-279v122h281q52 0 83 11.5t47 31t20.5 46.5t4.5 59q0 34 -9.5 58t-32.5 39t-62 21.5t-98 6.5q-39 0 -80 -2t-78.5 -4.5t-68.5 -5.5
t-50 -5v113q11 3 41 8t70.5 10.5t87 9t90.5 3.5q88 0 155 -12.5t112 -41t68 -75.5t23 -115q0 -69 -27 -127.5t-89 -89.5q65 -29 90.5 -84.5t25.5 -132.5q0 -75 -23 -126.5t-68.5 -84t-112.5 -47t-154 -14.5q-44 0 -90.5 3.5t-87 8.5t-70.5 10t-41 8v113z" />
    <glyph glyph-name="acute" unicode="&#xb4;" 
d="M309 1262l269 315h223l-307 -315h-185z" />
    <glyph glyph-name="mu" unicode="&#xb5;" horiz-adv-x="1321" 
d="M930 0v88q-113 -57 -209 -87t-182 -30q-45 0 -82 6.5t-68 18.5v-426h-184v1556h182v-718q0 -77 7.5 -130t28.5 -86t58.5 -48t96.5 -15q66 0 152.5 25.5t199.5 74.5v897h184v-1126h-184z" />
    <glyph glyph-name="paragraph" unicode="&#xb6;" horiz-adv-x="1507" 
d="M1167 -406v1770h-116v-1770h-172v932h-95q-140 0 -258 20.5t-204 75t-134.5 149t-48.5 243.5v20q0 155 49 251t137 148.5t210 70.5t268 18h536v-1928h-172z" />
    <glyph glyph-name="glyph121" unicode="&#xb7;" horiz-adv-x="516" 
d="M164 614v283h186v-283h-186z" />
    <glyph glyph-name="cedilla" unicode="&#xb8;" 
d="M150 -430l237 291h229l-278 -291h-188z" />
    <glyph glyph-name="one.superior" unicode="&#xb9;" horiz-adv-x="881" 
d="M156 680v121l213 6v635l-215 -68v137l262 88h121v-792l213 -6v-121h-594z" />
    <glyph glyph-name="ordmasculine" unicode="&#xba;" horiz-adv-x="897" 
d="M780 1198q0 -161 -84.5 -244.5t-246.5 -83.5q-163 0 -247.5 83.5t-84.5 244.5v68q0 162 84.5 243.5t247.5 81.5q162 0 246.5 -81.5t84.5 -243.5v-68zM629 1266q0 107 -43 153.5t-137 46.5t-137.5 -46.5t-43.5 -153.5v-68q0 -107 43 -154t138 -47q94 0 137 47t43 154v68z
" />
    <glyph glyph-name="guillemotright" unicode="&#xbb;" horiz-adv-x="1384" 
d="M719 166l323 426l-323 422h217l334 -422l-334 -426h-217zM115 166l325 426l-325 422h217l336 -422l-336 -426h-217z" />
    <glyph glyph-name="onequarter" unicode="&#xbc;" horiz-adv-x="1931" 
d="M459 0l968 1522h185l-969 -1522h-184zM141 614v121l213 6v635l-215 -67v137l262 88h121v-793l213 -6v-121h-594zM1503 0v225h-461v135l467 553h162v-563h144v-125h-144v-225h-168zM1507 721l-311 -371h311v371z" />
    <glyph glyph-name="onehalf" unicode="&#xbd;" horiz-adv-x="2118" 
d="M459 0l968 1522h185l-969 -1522h-184zM141 614v121l213 6v635l-215 -67v137l262 88h121v-793l213 -6v-121h-594zM1362 0v115q0 79 16 135.5t51.5 101t92.5 81.5t139 77q65 31 103.5 54.5t58 44.5t25 42.5t5.5 48.5q0 59 -43.5 83t-146.5 24q-39 0 -81.5 -2t-82 -4.5
t-72 -5.5t-51.5 -4v110q12 3 44 8t74 10.5t91 9t96 3.5q172 0 256 -53.5t84 -173.5q0 -47 -13 -85.5t-43 -73.5t-80 -68.5t-124 -69.5q-74 -37 -120 -65t-71 -56.5t-33.5 -62t-8.5 -81.5v-12h481v-131h-647z" />
    <glyph glyph-name="threequarters" unicode="&#xbe;" horiz-adv-x="2025" 
d="M475 0l971 1522h184l-971 -1522h-184zM1583 0v225h-461v135l467 553h162v-563h143v-125h-143v-225h-168zM1587 721l-311 -371h311v371zM131 739q19 -2 50 -4.5t68.5 -5t78.5 -4.5t80 -2q51 0 88.5 6t63 22.5t38 45.5t12.5 75q0 36 -4.5 64.5t-21 48t-47.5 29.5t-84 10
h-279v123h281q52 0 83 11t47 31t20.5 46.5t4.5 58.5q0 34 -9.5 58t-32.5 39t-62 21.5t-98 6.5q-39 0 -80 -2t-78.5 -4.5t-68.5 -5.5t-50 -4v113q11 3 41 8t70.5 10t87 8.5t90.5 3.5q88 0 155 -12.5t112 -41t68 -75t23 -114.5q0 -70 -27 -128.5t-89 -89.5q65 -29 90.5 -84
t25.5 -133q0 -74 -23 -126t-68.5 -84.5t-112.5 -47t-154 -14.5q-44 0 -90.5 3.5t-87 8.5t-70.5 10.5t-41 8.5v112z" />
    <glyph glyph-name="questiondown" unicode="&#xbf;" horiz-adv-x="967" 
d="M905 -438q-75 -20 -161.5 -33.5t-176.5 -13.5q-102 0 -181.5 18t-134.5 58t-83.5 103.5t-28.5 153.5v17q0 49 10 94.5t35 92.5t65.5 98.5t102.5 113.5q46 47 78.5 83.5t54 67t34 56.5t19 53t8 56t1.5 65v86h180v-86q0 -65 -6 -119t-27 -105.5t-61 -106t-109 -121.5
q-59 -58 -96.5 -101.5t-59.5 -81t-30 -72t-8 -73.5v-17q0 -52 16.5 -85.5t49 -52.5t79.5 -26.5t109 -7.5q74 0 156 8t165 17v-139zM543 844v282h184v-282h-184z" />
    <glyph glyph-name="Agrave" unicode="&#xc0;" horiz-adv-x="1358" 
d="M1106 0l-158 498h-545l-161 -498h-191l498 1522h260l498 -1522h-201zM748 1114q-20 62 -35 122t-27 128h-20q-14 -68 -28 -128t-34 -122l-145 -444h432zM680 1616l-307 315h223l268 -315h-184z" />
    <glyph glyph-name="Aacute" unicode="&#xc1;" horiz-adv-x="1358" 
d="M1106 0l-158 498h-545l-161 -498h-191l498 1522h260l498 -1522h-201zM748 1114q-20 62 -35 122t-27 128h-20q-14 -68 -28 -128t-34 -122l-145 -444h432zM536 1616l269 315h223l-307 -315h-185z" />
    <glyph glyph-name="Acircumflex" unicode="&#xc2;" horiz-adv-x="1358" 
d="M1106 0l-158 498h-545l-161 -498h-191l498 1522h260l498 -1522h-201zM748 1114q-20 62 -35 122t-27 128h-20q-14 -68 -28 -128t-34 -122l-145 -444h432zM889 1616l-215 215l-213 -215h-184l276 315h244l276 -315h-184z" />
    <glyph glyph-name="Atilde" unicode="&#xc3;" horiz-adv-x="1358" 
d="M1106 0l-158 498h-545l-161 -498h-191l498 1522h260l498 -1522h-201zM748 1114q-20 62 -35 122t-27 128h-20q-14 -68 -28 -128t-34 -122l-145 -444h432zM1084 1857q0 -57 -9.5 -104t-33 -80.5t-61.5 -51.5t-95 -18t-106.5 21t-102.5 63l-84 68q-34 29 -59.5 43t-57.5 14
q-43 0 -57 -32.5t-14 -92.5v-69h-133v69q0 58 11 105t35.5 80t63.5 51t94 18q29 0 54 -4.5t48.5 -13.5t47 -24t49.5 -36l86 -69q32 -26 60.5 -43t60.5 -17q44 0 58 31.5t14 91.5v70h131v-70z" />
    <glyph glyph-name="Adieresis" unicode="&#xc4;" horiz-adv-x="1358" 
d="M1106 0l-158 498h-545l-161 -498h-191l498 1522h260l498 -1522h-201zM748 1114q-20 62 -35 122t-27 128h-20q-14 -68 -28 -128t-34 -122l-145 -444h432zM828 1657v242h165v-242h-165zM359 1657v242h167v-242h-167z" />
    <glyph glyph-name="Aring" unicode="&#xc5;" horiz-adv-x="1358" 
d="M1106 0l-158 498h-545l-161 -498h-191l498 1522h260l498 -1522h-201zM748 1114q-20 62 -35 122t-27 128h-20q-14 -68 -28 -128t-34 -122l-145 -444h432zM682 1577q-51 0 -95 13t-76.5 40t-51.5 69t-19 101t19 101.5t51.5 69.5t76.5 40t95 13q50 0 93 -13t75 -40t50 -69.5
t18 -101.5t-18 -101t-50 -69t-75 -40t-93 -13zM682 1913q-24 0 -45 -5.5t-36.5 -18.5t-24.5 -35t-9 -54t9 -53t24.5 -34.5t36.5 -19t45 -5.5q23 0 43.5 5.5t36 19t24.5 34.5t9 53t-9 54t-24.5 35t-36 18.5t-43.5 5.5z" />
    <glyph glyph-name="AE" unicode="&#xc6;" horiz-adv-x="1974" 
d="M963 0v498h-541l-158 -498h-192l491 1522h1299v-168h-713v-480h672v-169h-672v-539h713v-166h-899zM963 1356h-271q-17 -57 -33 -114t-34 -116l-148 -460h486v690z" />
    <glyph glyph-name="Ccedilla" unicode="&#xc7;" horiz-adv-x="1141" 
d="M1079 6q-23 -4 -61.5 -10t-85.5 -11.5t-100 -9.5t-105 -4q-87 0 -166.5 12t-147.5 41t-123.5 78t-94.5 123t-60.5 175t-21.5 235v252q0 133 21.5 234t60.5 174t94.5 121.5t123.5 77.5t147.5 40.5t166.5 11.5q52 0 105 -4t100 -9.5t85.5 -11.5t61.5 -10v-153
q-35 3 -78.5 6.5t-90 6.5t-94 5t-89.5 2q-108 0 -188 -24t-133 -81t-79 -151t-26 -235v-252q0 -141 26 -235.5t79 -152t133 -82t188 -24.5q42 0 89.5 2t94 4.5t90 6t78.5 6.5v-154zM336 -430l237 291h229l-278 -291h-188z" />
    <glyph glyph-name="Egrave" unicode="&#xc8;" horiz-adv-x="1188" 
d="M174 0v1522h901v-168h-713v-480h670v-169h-670v-539h713v-166h-901zM576 1616l-307 315h223l268 -315h-184z" />
    <glyph glyph-name="Eacute" unicode="&#xc9;" horiz-adv-x="1188" 
d="M174 0v1522h901v-168h-713v-480h670v-169h-670v-539h713v-166h-901zM512 1616l269 315h223l-307 -315h-185z" />
    <glyph glyph-name="Ecircumflex" unicode="&#xca;" horiz-adv-x="1188" 
d="M174 0v1522h901v-168h-713v-480h670v-169h-670v-539h713v-166h-901zM840 1616l-215 215l-213 -215h-184l276 315h244l276 -315h-184z" />
    <glyph glyph-name="Edieresis" unicode="&#xcb;" horiz-adv-x="1188" 
d="M174 0v1522h901v-168h-713v-480h670v-169h-670v-539h713v-166h-901zM779 1657v242h165v-242h-165zM310 1657v242h167v-242h-167z" />
    <glyph glyph-name="Igrave" unicode="&#xcc;" horiz-adv-x="537" 
d="M174 0v1522h188v-1522h-188zM282 1616l-307 315h223l268 -315h-184z" />
    <glyph glyph-name="Iacute" unicode="&#xcd;" horiz-adv-x="537" 
d="M174 0v1522h188v-1522h-188zM136 1614l269 315h223l-307 -315h-185z" />
    <glyph glyph-name="Icircumflex" unicode="&#xce;" horiz-adv-x="537" 
d="M174 0v1522h188v-1522h-188zM484 1616l-215 215l-213 -215h-184l276 315h244l276 -315h-184z" />
    <glyph glyph-name="Idieresis" unicode="&#xcf;" horiz-adv-x="537" 
d="M174 0v1522h188v-1522h-188zM419 1657v242h165v-242h-165zM-50 1657v242h167v-242h-167z" />
    <glyph glyph-name="Eth" unicode="&#xd0;" horiz-adv-x="1380" 
d="M1268 639q0 -145 -35.5 -263t-115 -201.5t-206.5 -129t-311 -45.5h-426v707h-108v165h108v650h426q177 0 303.5 -45t207.5 -128t119 -200.5t38 -261.5v-248zM1077 887q0 130 -31 219t-93 144t-154 79.5t-215 24.5h-222v-482h308v-165h-308v-541h222q123 0 215 25
t154 81.5t93 146.5t31 220v248z" />
    <glyph glyph-name="Ntilde" unicode="&#xd1;" horiz-adv-x="1446" 
d="M1004 0l-537 1092q-28 57 -61 123.5t-62 134.5h-4q5 -76 7.5 -156.5t2.5 -161.5v-1032h-176v1522h270l531 -1063q14 -28 29.5 -60.5t32 -66.5t32 -68t29.5 -65h4q-6 91 -8 176.5t-2 156.5v990h180v-1522h-268zM1127 1853q0 -57 -9.5 -104t-33 -80.5t-61.5 -51.5t-95 -18
t-106.5 21t-102.5 63l-84 68q-34 29 -59.5 43t-57.5 14q-43 0 -57 -32.5t-14 -92.5v-69h-133v69q0 58 11 105t35.5 80t63.5 51t94 18q29 0 54 -4.5t48.5 -13.5t47 -24t49.5 -36l86 -69q32 -26 60.5 -43t60.5 -17q44 0 58 31.5t14 91.5v70h131v-70z" />
    <glyph glyph-name="Ograve" unicode="&#xd2;" horiz-adv-x="1401" 
d="M1288 651q0 -163 -38.5 -289.5t-113.5 -213.5t-184.5 -132t-251.5 -45t-251.5 45t-184 132t-113 213.5t-38.5 289.5v217q0 163 38.5 289.5t113 212.5t184 131t251.5 45t251.5 -45t184.5 -131t113.5 -212.5t38.5 -289.5v-217zM1098 868q0 140 -29.5 237t-82 158t-125.5 88
t-161 27q-87 0 -160 -27t-125.5 -88t-82 -158t-29.5 -237v-217q0 -140 29.5 -237t82 -158.5t125.5 -89t160 -27.5q88 0 161 27.5t125.5 89t82 158.5t29.5 237v217zM678 1616l-307 315h223l268 -315h-184z" />
    <glyph glyph-name="Oacute" unicode="&#xd3;" horiz-adv-x="1401" 
d="M1288 651q0 -163 -38.5 -289.5t-113.5 -213.5t-184.5 -132t-251.5 -45t-251.5 45t-184 132t-113 213.5t-38.5 289.5v217q0 163 38.5 289.5t113 212.5t184 131t251.5 45t251.5 -45t184.5 -131t113.5 -212.5t38.5 -289.5v-217zM1098 868q0 140 -29.5 237t-82 158t-125.5 88
t-161 27q-87 0 -160 -27t-125.5 -88t-82 -158t-29.5 -237v-217q0 -140 29.5 -237t82 -158.5t125.5 -89t160 -27.5q88 0 161 27.5t125.5 89t82 158.5t29.5 237v217zM542 1616l269 315h223l-307 -315h-185z" />
    <glyph glyph-name="Ocircumflex" unicode="&#xd4;" horiz-adv-x="1401" 
d="M1288 651q0 -163 -38.5 -289.5t-113.5 -213.5t-184.5 -132t-251.5 -45t-251.5 45t-184 132t-113 213.5t-38.5 289.5v217q0 163 38.5 289.5t113 212.5t184 131t251.5 45t251.5 -45t184.5 -131t113.5 -212.5t38.5 -289.5v-217zM1098 868q0 140 -29.5 237t-82 158t-125.5 88
t-161 27q-87 0 -160 -27t-125.5 -88t-82 -158t-29.5 -237v-217q0 -140 29.5 -237t82 -158.5t125.5 -89t160 -27.5q88 0 161 27.5t125.5 89t82 158.5t29.5 237v217zM913 1614l-215 215l-213 -215h-184l276 315h244l276 -315h-184z" />
    <glyph glyph-name="Otilde" unicode="&#xd5;" horiz-adv-x="1401" 
d="M1288 651q0 -163 -38.5 -289.5t-113.5 -213.5t-184.5 -132t-251.5 -45t-251.5 45t-184 132t-113 213.5t-38.5 289.5v217q0 163 38.5 289.5t113 212.5t184 131t251.5 45t251.5 -45t184.5 -131t113.5 -212.5t38.5 -289.5v-217zM1098 868q0 140 -29.5 237t-82 158t-125.5 88
t-161 27q-87 0 -160 -27t-125.5 -88t-82 -158t-29.5 -237v-217q0 -140 29.5 -237t82 -158.5t125.5 -89t160 -27.5q88 0 161 27.5t125.5 89t82 158.5t29.5 237v217zM1106 1853q0 -57 -9.5 -104t-33 -80.5t-61.5 -51.5t-95 -18t-106.5 21t-102.5 63l-84 68q-34 29 -59.5 43
t-57.5 14q-43 0 -57 -32.5t-14 -92.5v-69h-133v69q0 58 11 105t35.5 80t63.5 51t94 18q29 0 54 -4.5t48.5 -13.5t47 -24t49.5 -36l86 -69q32 -26 60.5 -43t60.5 -17q44 0 58 31.5t14 91.5v70h131v-70z" />
    <glyph glyph-name="Odieresis" unicode="&#xd6;" horiz-adv-x="1401" 
d="M1288 651q0 -163 -38.5 -289.5t-113.5 -213.5t-184.5 -132t-251.5 -45t-251.5 45t-184 132t-113 213.5t-38.5 289.5v217q0 163 38.5 289.5t113 212.5t184 131t251.5 45t251.5 -45t184.5 -131t113.5 -212.5t38.5 -289.5v-217zM1098 868q0 140 -29.5 237t-82 158t-125.5 88
t-161 27q-87 0 -160 -27t-125.5 -88t-82 -158t-29.5 -237v-217q0 -140 29.5 -237t82 -158.5t125.5 -89t160 -27.5q88 0 161 27.5t125.5 89t82 158.5t29.5 237v217zM852 1659v242h165v-242h-165zM383 1659v242h167v-242h-167z" />
    <glyph glyph-name="multiply" unicode="&#xd7;" horiz-adv-x="1438" 
d="M1026 385l-307 307l-311 -311l-105 104l311 314l-313 311l105 104l313 -311l309 311l107 -106l-312 -311l310 -308z" />
    <glyph glyph-name="Oslash" unicode="&#xd8;" horiz-adv-x="1401" 
d="M1288 651q0 -163 -38.5 -289.5t-113.5 -213.5t-184.5 -132t-251.5 -45q-234 0 -381 121l-65 -92h-195l156 217q-102 166 -102 434v217q0 163 38.5 289.5t113 212.5t184 131t251.5 45q118 0 212.5 -31t166.5 -90l68 95h194l-155 -217q51 -84 76.5 -192t25.5 -243v-217z
M973 1276q-53 54 -122 78t-151 24q-87 0 -160 -27t-125.5 -88t-82 -158t-29.5 -237v-217q0 -156 37 -260zM1098 868q0 79 -9.5 143.5t-27.5 116.5l-635 -886q53 -54 122 -78.5t152 -24.5q88 0 161 27.5t125.5 89t82 158.5t29.5 237v217z" />
    <glyph glyph-name="Ugrave" unicode="&#xd9;" horiz-adv-x="1432" 
d="M1081 1522h187v-889q0 -330 -139 -496t-412 -166q-553 0 -553 662v889h188v-869q0 -138 18 -235.5t60 -159t112 -89.5t175 -28q103 0 173 28.5t112.5 90t60.5 159t18 234.5v869zM662 1616l-307 315h223l268 -315h-184z" />
    <glyph glyph-name="Uacute" unicode="&#xda;" horiz-adv-x="1432" 
d="M1081 1522h187v-889q0 -330 -139 -496t-412 -166q-553 0 -553 662v889h188v-869q0 -138 18 -235.5t60 -159t112 -89.5t175 -28q103 0 173 28.5t112.5 90t60.5 159t18 234.5v869zM592 1618l269 315h223l-307 -315h-185z" />
    <glyph glyph-name="Ucircumflex" unicode="&#xdb;" horiz-adv-x="1432" 
d="M1081 1522h187v-889q0 -330 -139 -496t-412 -166q-553 0 -553 662v889h188v-869q0 -138 18 -235.5t60 -159t112 -89.5t175 -28q103 0 173 28.5t112.5 90t60.5 159t18 234.5v869zM932 1616l-215 215l-213 -215h-184l276 315h244l276 -315h-184z" />
    <glyph glyph-name="Udieresis" unicode="&#xdc;" horiz-adv-x="1432" 
d="M1081 1522h187v-889q0 -330 -139 -496t-412 -166q-553 0 -553 662v889h188v-869q0 -138 18 -235.5t60 -159t112 -89.5t175 -28q103 0 173 28.5t112.5 90t60.5 159t18 234.5v869zM865 1657v242h165v-242h-165zM396 1657v242h167v-242h-167z" />
    <glyph glyph-name="Yacute" unicode="&#xdd;" horiz-adv-x="1284" 
d="M549 0v602l-508 920h207l276 -502q29 -54 61.5 -118t55.5 -124h12q11 29 26 60.5t31.5 63t33.5 61.5t32 57l275 502h192l-508 -920v-602h-186zM526 1616l269 315h223l-307 -315h-185z" />
    <glyph glyph-name="Thorn" unicode="&#xde;" horiz-adv-x="1260" 
d="M1188 780q0 -96 -22 -166.5t-62.5 -121t-97 -83t-126 -51t-150 -25.5t-167.5 -7h-201v-326h-188v1522h188v-267h201q87 0 167 -6.5t149.5 -25t126 -50t97 -81t62.5 -120t23 -165.5v-27zM997 807q-1 91 -28.5 146.5t-81.5 86t-135 40.5t-189 10h-201v-596h201
q108 0 189.5 10.5t136 41.5t81.5 87t27 147v27z" />
    <glyph glyph-name="germandbls" unicode="&#xdf;" horiz-adv-x="1282" 
d="M1159 440q0 -103 -29 -186.5t-90.5 -143t-157.5 -92t-231 -32.5q-12 0 -43.5 0.5t-81.5 5.5v143q47 -2 76 -2h43q88 0 151 17.5t103.5 55t60 96t19.5 140.5v47q0 64 -19 114t-60.5 84.5t-107 52.5t-157.5 18h-109v145h109q90 0 149.5 20t95.5 55t51 84t15 107v23
q0 58 -13 105.5t-46 82t-89 53.5t-141 19q-84 0 -142.5 -21t-95.5 -71.5t-54 -134.5t-17 -209v-1016h-184v1016q0 142 26 253t84.5 187t152.5 116t230 40q123 0 211.5 -32t146 -88t84.5 -133t27 -167v-23q0 -114 -47.5 -199t-146.5 -130q108 -44 167.5 -133.5t59.5 -217.5
v-49z" />
    <glyph glyph-name="agrave" unicode="&#xe0;" horiz-adv-x="1116" 
d="M797 0v76q-26 -18 -61.5 -36.5t-80.5 -33.5t-99.5 -25t-117.5 -10q-79 0 -141.5 18.5t-105.5 57.5t-66 99.5t-23 144.5v41q0 111 36.5 179.5t104.5 106t163.5 50t214.5 12.5h167v82q0 73 -9.5 119t-38 72t-80 36t-136.5 10q-47 0 -90 -2t-85 -5t-84.5 -7.5t-88.5 -9.5
v131q12 4 46 12.5t82.5 16.5t109 14t125.5 6q140 0 225.5 -25.5t132 -75t61.5 -123t15 -169.5v-762h-176zM788 541h-167q-89 0 -152.5 -7.5t-104 -29.5t-59 -63.5t-18.5 -108.5v-56q0 -47 14 -78t39 -49.5t59.5 -26t75.5 -7.5q50 0 98.5 9.5t90.5 23.5t74 29.5t50 27.5v336z
M527 1262l-307 315h223l268 -315h-184z" />
    <glyph glyph-name="aacute" unicode="&#xe1;" horiz-adv-x="1116" 
d="M797 0v76q-26 -18 -61.5 -36.5t-80.5 -33.5t-99.5 -25t-117.5 -10q-79 0 -141.5 18.5t-105.5 57.5t-66 99.5t-23 144.5v41q0 111 36.5 179.5t104.5 106t163.5 50t214.5 12.5h167v82q0 73 -9.5 119t-38 72t-80 36t-136.5 10q-47 0 -90 -2t-85 -5t-84.5 -7.5t-88.5 -9.5
v131q12 4 46 12.5t82.5 16.5t109 14t125.5 6q140 0 225.5 -25.5t132 -75t61.5 -123t15 -169.5v-762h-176zM788 541h-167q-89 0 -152.5 -7.5t-104 -29.5t-59 -63.5t-18.5 -108.5v-56q0 -47 14 -78t39 -49.5t59.5 -26t75.5 -7.5q50 0 98.5 9.5t90.5 23.5t74 29.5t50 27.5v336z
M430 1262l269 315h223l-307 -315h-185z" />
    <glyph glyph-name="acircumflex" unicode="&#xe2;" horiz-adv-x="1116" 
d="M797 0v76q-26 -18 -61.5 -36.5t-80.5 -33.5t-99.5 -25t-117.5 -10q-79 0 -141.5 18.5t-105.5 57.5t-66 99.5t-23 144.5v41q0 111 36.5 179.5t104.5 106t163.5 50t214.5 12.5h167v82q0 73 -9.5 119t-38 72t-80 36t-136.5 10q-47 0 -90 -2t-85 -5t-84.5 -7.5t-88.5 -9.5
v131q12 4 46 12.5t82.5 16.5t109 14t125.5 6q140 0 225.5 -25.5t132 -75t61.5 -123t15 -169.5v-762h-176zM788 541h-167q-89 0 -152.5 -7.5t-104 -29.5t-59 -63.5t-18.5 -108.5v-56q0 -47 14 -78t39 -49.5t59.5 -26t75.5 -7.5q50 0 98.5 9.5t90.5 23.5t74 29.5t50 27.5v336z
M776 1262l-215 215l-213 -215h-184l276 315h244l276 -315h-184z" />
    <glyph glyph-name="atilde" unicode="&#xe3;" horiz-adv-x="1116" 
d="M797 0v76q-26 -18 -61.5 -36.5t-80.5 -33.5t-99.5 -25t-117.5 -10q-79 0 -141.5 18.5t-105.5 57.5t-66 99.5t-23 144.5v41q0 111 36.5 179.5t104.5 106t163.5 50t214.5 12.5h167v82q0 73 -9.5 119t-38 72t-80 36t-136.5 10q-47 0 -90 -2t-85 -5t-84.5 -7.5t-88.5 -9.5
v131q12 4 46 12.5t82.5 16.5t109 14t125.5 6q140 0 225.5 -25.5t132 -75t61.5 -123t15 -169.5v-762h-176zM788 541h-167q-89 0 -152.5 -7.5t-104 -29.5t-59 -63.5t-18.5 -108.5v-56q0 -47 14 -78t39 -49.5t59.5 -26t75.5 -7.5q50 0 98.5 9.5t90.5 23.5t74 29.5t50 27.5v336z
M969 1507q0 -57 -9.5 -104t-33 -80.5t-61.5 -51.5t-95 -18t-106.5 21t-102.5 63l-84 68q-34 29 -59.5 43t-57.5 14q-43 0 -57 -32.5t-14 -92.5v-69h-133v69q0 58 11 105t35.5 80t63.5 51t94 18q29 0 54 -4.5t48.5 -13.5t47 -24t49.5 -36l86 -69q32 -26 60.5 -43t60.5 -17
q44 0 58 31.5t14 91.5v70h131v-70z" />
    <glyph glyph-name="adieresis" unicode="&#xe4;" horiz-adv-x="1116" 
d="M797 0v76q-26 -18 -61.5 -36.5t-80.5 -33.5t-99.5 -25t-117.5 -10q-79 0 -141.5 18.5t-105.5 57.5t-66 99.5t-23 144.5v41q0 111 36.5 179.5t104.5 106t163.5 50t214.5 12.5h167v82q0 73 -9.5 119t-38 72t-80 36t-136.5 10q-47 0 -90 -2t-85 -5t-84.5 -7.5t-88.5 -9.5
v131q12 4 46 12.5t82.5 16.5t109 14t125.5 6q140 0 225.5 -25.5t132 -75t61.5 -123t15 -169.5v-762h-176zM788 541h-167q-89 0 -152.5 -7.5t-104 -29.5t-59 -63.5t-18.5 -108.5v-56q0 -47 14 -78t39 -49.5t59.5 -26t75.5 -7.5q50 0 98.5 9.5t90.5 23.5t74 29.5t50 27.5v336z
M715 1317v242h165v-242h-165zM246 1317v242h167v-242h-167z" />
    <glyph glyph-name="aring" unicode="&#xe5;" horiz-adv-x="1116" 
d="M797 0v76q-26 -18 -61.5 -36.5t-80.5 -33.5t-99.5 -25t-117.5 -10q-79 0 -141.5 18.5t-105.5 57.5t-66 99.5t-23 144.5v41q0 111 36.5 179.5t104.5 106t163.5 50t214.5 12.5h167v82q0 73 -9.5 119t-38 72t-80 36t-136.5 10q-47 0 -90 -2t-85 -5t-84.5 -7.5t-88.5 -9.5
v131q12 4 46 12.5t82.5 16.5t109 14t125.5 6q140 0 225.5 -25.5t132 -75t61.5 -123t15 -169.5v-762h-176zM788 541h-167q-89 0 -152.5 -7.5t-104 -29.5t-59 -63.5t-18.5 -108.5v-56q0 -47 14 -78t39 -49.5t59.5 -26t75.5 -7.5q50 0 98.5 9.5t90.5 23.5t74 29.5t50 27.5v336z
M586 1232q-51 0 -95 13t-76.5 40t-51.5 69t-19 101t19 101.5t51.5 69.5t76.5 40t95 13q50 0 93 -13t75 -40t50 -69.5t18 -101.5t-18 -101t-50 -69t-75 -40t-93 -13zM586 1568q-24 0 -45 -5.5t-36.5 -18.5t-24.5 -35t-9 -54t9 -53t24.5 -34.5t36.5 -19t45 -5.5q23 0 43.5 5.5
t36 19t24.5 34.5t9 53t-9 54t-24.5 35t-36 18.5t-43.5 5.5z" />
    <glyph glyph-name="ae" unicode="&#xe6;" horiz-adv-x="1862" 
d="M1708 16q-30 -8 -72 -15.5t-93.5 -14.5t-110.5 -11t-123 -4q-160 0 -261.5 36t-158.5 104q-52 -36 -103.5 -62t-106.5 -43.5t-114.5 -26t-126.5 -8.5q-79 0 -141.5 18.5t-105.5 57.5t-66 99.5t-23 144.5v41q0 111 36.5 179.5t104.5 106t163.5 50t214.5 12.5h167v82
q0 73 -9.5 119t-38 72t-80 36t-136.5 10q-47 0 -90 -2t-85 -5t-84.5 -7.5t-88.5 -9.5v131q12 4 46 12.5t82.5 16.5t109 14t125.5 6q89 0 151.5 -8.5t105.5 -25t71 -40t48 -53.5q28 29 63 52.5t78 39.5t95.5 24.5t116.5 8.5q123 0 214 -37.5t150 -109t88 -175.5t29 -237v-98
h-774v-23q0 -48 3 -92.5t14.5 -82.5t33 -70t59 -54t93.5 -34.5t135 -12.5q114 0 210.5 10.5t184.5 26.5v-148zM1561 668q0 34 -3.5 71.5t-14 74t-30.5 69.5t-52.5 58t-80 39.5t-112.5 14.5q-64 0 -111 -14.5t-79 -39.5t-52 -58t-31 -69.5t-14.5 -74t-3.5 -71.5v-21h584v21z
M788 541h-167q-89 0 -152.5 -7.5t-104 -29.5t-59 -63.5t-18.5 -108.5v-56q0 -47 14 -78t39 -49.5t59.5 -26t75.5 -7.5q50 0 98.5 9.5t90.5 23.5t74 29.5t50 27.5v336z" />
    <glyph glyph-name="ccedilla" unicode="&#xe7;" horiz-adv-x="977" 
d="M885 10q-15 -5 -44 -11.5t-70 -12.5t-94 -10.5t-114 -4.5q-115 0 -200 34t-140.5 99.5t-82.5 160t-27 214.5v170q0 121 27 215.5t82.5 159t140.5 98t200 33.5q61 0 114 -4.5t94 -10.5t70 -13t44 -11v-139q-103 11 -176.5 15.5t-118.5 4.5q-68 0 -122 -15t-92 -54
t-58.5 -106.5t-20.5 -172.5v-170q0 -105 20.5 -173t58.5 -107t92 -54.5t122 -15.5q45 0 118.5 5t176.5 16v-140zM220 -430l237 291h229l-278 -291h-188z" />
    <glyph glyph-name="egrave" unicode="&#xe8;" horiz-adv-x="1186" 
d="M1030 16q-59 -15 -160 -30t-241 -15q-150 0 -249.5 33.5t-158.5 101.5t-83.5 169.5t-24.5 238.5v86q0 133 29.5 236t89 174t149 108t209.5 37q249 0 366 -147t117 -430v-82h-776v-23q0 -73 9.5 -135.5t44 -108.5t102 -72t184.5 -26q47 0 99.5 2.5t104.5 7t100.5 10.5
t88.5 13v-148zM883 668q0 34 -3.5 71.5t-14 74t-30 69.5t-51.5 58t-79.5 39.5t-112.5 14.5q-64 0 -111 -14.5t-79.5 -39.5t-52.5 -58t-31 -69.5t-15 -74t-4 -71.5v-21h584v21zM586 1262l-307 315h223l268 -315h-184z" />
    <glyph glyph-name="eacute" unicode="&#xe9;" horiz-adv-x="1186" 
d="M1030 16q-59 -15 -160 -30t-241 -15q-150 0 -249.5 33.5t-158.5 101.5t-83.5 169.5t-24.5 238.5v86q0 133 29.5 236t89 174t149 108t209.5 37q249 0 366 -147t117 -430v-82h-776v-23q0 -73 9.5 -135.5t44 -108.5t102 -72t184.5 -26q47 0 99.5 2.5t104.5 7t100.5 10.5
t88.5 13v-148zM883 668q0 34 -3.5 71.5t-14 74t-30 69.5t-51.5 58t-79.5 39.5t-112.5 14.5q-64 0 -111 -14.5t-79.5 -39.5t-52.5 -58t-31 -69.5t-15 -74t-4 -71.5v-21h584v21zM491 1262l269 315h223l-307 -315h-185z" />
    <glyph glyph-name="ecircumflex" unicode="&#xea;" horiz-adv-x="1186" 
d="M1030 16q-59 -15 -160 -30t-241 -15q-150 0 -249.5 33.5t-158.5 101.5t-83.5 169.5t-24.5 238.5v86q0 133 29.5 236t89 174t149 108t209.5 37q249 0 366 -147t117 -430v-82h-776v-23q0 -73 9.5 -135.5t44 -108.5t102 -72t184.5 -26q47 0 99.5 2.5t104.5 7t100.5 10.5
t88.5 13v-148zM883 668q0 34 -3.5 71.5t-14 74t-30 69.5t-51.5 58t-79.5 39.5t-112.5 14.5q-64 0 -111 -14.5t-79.5 -39.5t-52.5 -58t-31 -69.5t-15 -74t-4 -71.5v-21h584v21zM815 1262l-215 215l-213 -215h-184l276 315h244l276 -315h-184z" />
    <glyph glyph-name="edieresis" unicode="&#xeb;" horiz-adv-x="1186" 
d="M1030 16q-59 -15 -160 -30t-241 -15q-150 0 -249.5 33.5t-158.5 101.5t-83.5 169.5t-24.5 238.5v86q0 133 29.5 236t89 174t149 108t209.5 37q249 0 366 -147t117 -430v-82h-776v-23q0 -73 9.5 -135.5t44 -108.5t102 -72t184.5 -26q47 0 99.5 2.5t104.5 7t100.5 10.5
t88.5 13v-148zM883 668q0 34 -3.5 71.5t-14 74t-30 69.5t-51.5 58t-79.5 39.5t-112.5 14.5q-64 0 -111 -14.5t-79.5 -39.5t-52.5 -58t-31 -69.5t-15 -74t-4 -71.5v-21h584v21zM746 1317v242h165v-242h-165zM277 1317v242h167v-242h-167z" />
    <glyph glyph-name="igrave" unicode="&#xec;" horiz-adv-x="524" 
d="M170 0v1126h184v-1126h-184zM237 1262l-307 315h223l268 -315h-184z" />
    <glyph glyph-name="iacute" unicode="&#xed;" horiz-adv-x="524" 
d="M170 0v1126h184v-1126h-184zM99 1262l269 315h223l-307 -315h-185z" />
    <glyph glyph-name="icircumflex" unicode="&#xee;" horiz-adv-x="524" 
d="M170 0v1126h184v-1126h-184zM478 1262l-215 215l-213 -215h-184l276 315h244l276 -315h-184z" />
    <glyph glyph-name="idieresis" unicode="&#xef;" horiz-adv-x="524" 
d="M170 0v1126h184v-1126h-184zM417 1317v242h165v-242h-165zM-52 1317v242h167v-242h-167z" />
    <glyph glyph-name="eth" unicode="&#xf0;" horiz-adv-x="1186" 
d="M1073 483q0 -250 -121 -380t-360 -130q-238 0 -358.5 130t-120.5 380v138q0 251 120.5 380t358.5 129q68 0 126.5 -14.5t106.5 -42.5q-35 96 -93 168.5t-146 120.5l-275 -178l-73 98l206 141q-57 14 -119.5 22.5t-127.5 8.5h-19.5t-27.5 -2v147q17 2 31.5 2.5t25.5 0.5
q114 0 211.5 -18t179.5 -50l164 104l76 -96l-109 -76q90 -59 155 -143.5t107 -191.5t62 -235t20 -275v-138zM889 621q0 93 -17.5 160t-53.5 109.5t-92 62.5t-134 20q-76 0 -131.5 -20t-92 -62.5t-54 -109.5t-17.5 -160v-138q0 -93 17.5 -159t53.5 -108.5t91.5 -62.5
t132.5 -20q78 0 134 19.5t92 61.5t53.5 108.5t17.5 160.5v138z" />
    <glyph glyph-name="ntilde" unicode="&#xf1;" horiz-adv-x="1221" 
d="M883 0v719q0 77 -7.5 130t-28.5 86t-58 47.5t-95 14.5q-66 0 -154 -25t-200 -75v-897h-182v1126h182v-88q98 51 189.5 84t185.5 33q112 0 181 -29.5t107 -85.5t51 -137t13 -184v-719h-184zM1014 1507q0 -57 -9.5 -104t-33 -80.5t-61.5 -51.5t-95 -18t-106.5 21t-102.5 63
l-84 68q-34 29 -59.5 43t-57.5 14q-43 0 -57 -32.5t-14 -92.5v-69h-133v69q0 58 11 105t35.5 80t63.5 51t94 18q29 0 54 -4.5t48.5 -13.5t47 -24t49.5 -36l86 -69q32 -26 60.5 -43t60.5 -17q44 0 58 31.5t14 91.5v70h131v-70z" />
    <glyph glyph-name="ograve" unicode="&#xf2;" horiz-adv-x="1186" 
d="M1073 481q0 -123 -30.5 -218t-91 -160t-150.5 -98.5t-209 -33.5t-208.5 33.5t-149.5 98.5t-90.5 160t-30.5 218v164q0 246 121 378t358 132q238 0 359.5 -132t121.5 -378v-164zM889 645q0 91 -17.5 157t-53.5 108.5t-92 62.5t-134 20q-152 0 -223.5 -82.5t-71.5 -265.5
v-164q0 -91 17.5 -157t53.5 -108.5t91.5 -62.5t132.5 -20q155 0 226 83t71 265v164zM570 1262l-307 315h223l268 -315h-184z" />
    <glyph glyph-name="oacute" unicode="&#xf3;" horiz-adv-x="1186" 
d="M1073 481q0 -123 -30.5 -218t-91 -160t-150.5 -98.5t-209 -33.5t-208.5 33.5t-149.5 98.5t-90.5 160t-30.5 218v164q0 246 121 378t358 132q238 0 359.5 -132t121.5 -378v-164zM889 645q0 91 -17.5 157t-53.5 108.5t-92 62.5t-134 20q-152 0 -223.5 -82.5t-71.5 -265.5
v-164q0 -91 17.5 -157t53.5 -108.5t91.5 -62.5t132.5 -20q155 0 226 83t71 265v164zM452 1262l269 315h223l-307 -315h-185z" />
    <glyph glyph-name="ocircumflex" unicode="&#xf4;" horiz-adv-x="1186" 
d="M1073 481q0 -123 -30.5 -218t-91 -160t-150.5 -98.5t-209 -33.5t-208.5 33.5t-149.5 98.5t-90.5 160t-30.5 218v164q0 246 121 378t358 132q238 0 359.5 -132t121.5 -378v-164zM889 645q0 91 -17.5 157t-53.5 108.5t-92 62.5t-134 20q-152 0 -223.5 -82.5t-71.5 -265.5
v-164q0 -91 17.5 -157t53.5 -108.5t91.5 -62.5t132.5 -20q155 0 226 83t71 265v164zM807 1262l-215 215l-213 -215h-184l276 315h244l276 -315h-184z" />
    <glyph glyph-name="otilde" unicode="&#xf5;" horiz-adv-x="1186" 
d="M1073 481q0 -123 -30.5 -218t-91 -160t-150.5 -98.5t-209 -33.5t-208.5 33.5t-149.5 98.5t-90.5 160t-30.5 218v164q0 246 121 378t358 132q238 0 359.5 -132t121.5 -378v-164zM889 645q0 91 -17.5 157t-53.5 108.5t-92 62.5t-134 20q-152 0 -223.5 -82.5t-71.5 -265.5
v-164q0 -91 17.5 -157t53.5 -108.5t91.5 -62.5t132.5 -20q155 0 226 83t71 265v164zM1000 1507q0 -57 -9.5 -104t-33 -80.5t-61.5 -51.5t-95 -18t-106.5 21t-102.5 63l-84 68q-34 29 -59.5 43t-57.5 14q-43 0 -57 -32.5t-14 -92.5v-69h-133v69q0 58 11 105t35.5 80t63.5 51
t94 18q29 0 54 -4.5t48.5 -13.5t47 -24t49.5 -36l86 -69q32 -26 60.5 -43t60.5 -17q44 0 58 31.5t14 91.5v70h131v-70z" />
    <glyph glyph-name="odieresis" unicode="&#xf6;" horiz-adv-x="1186" 
d="M1073 481q0 -123 -30.5 -218t-91 -160t-150.5 -98.5t-209 -33.5t-208.5 33.5t-149.5 98.5t-90.5 160t-30.5 218v164q0 246 121 378t358 132q238 0 359.5 -132t121.5 -378v-164zM889 645q0 91 -17.5 157t-53.5 108.5t-92 62.5t-134 20q-152 0 -223.5 -82.5t-71.5 -265.5
v-164q0 -91 17.5 -157t53.5 -108.5t91.5 -62.5t132.5 -20q155 0 226 83t71 265v164zM744 1317v242h165v-242h-165zM275 1317v242h167v-242h-167z" />
    <glyph glyph-name="divide" unicode="&#xf7;" horiz-adv-x="1438" 
d="M625 240v274h188v-274h-188zM229 725v152h977v-152h-977zM625 1081v273h188v-273h-188z" />
    <glyph glyph-name="oslash" unicode="&#xf8;" horiz-adv-x="1186" 
d="M1073 481q0 -123 -30.5 -218t-91 -160t-150.5 -98.5t-209 -33.5q-88 0 -158.5 18t-126.5 52l-69 -90h-191l150 196q-84 126 -84 334v164q0 246 120 378t359 132q96 0 172 -22t135 -64l82 107h190l-170 -222q72 -123 72 -309v-164zM889 645q0 40 -4 75t-11 66l-464 -608
q35 -23 80 -34t102 -11q154 0 225.5 83t71.5 265v164zM795 932q-70 61 -203 61q-77 0 -132.5 -20t-91.5 -62.5t-53.5 -108.5t-17.5 -157v-164q0 -52 4.5 -95.5t15.5 -78.5z" />
    <glyph glyph-name="ugrave" unicode="&#xf9;" horiz-adv-x="1221" 
d="M879 0v88q-113 -57 -209 -87t-183 -30q-104 0 -169 34t-101.5 93t-49.5 138.5t-13 171.5v718h182v-718q0 -77 7.5 -130t28.5 -86t58 -48t96 -15q66 0 153 25.5t200 74.5v897h184v-1126h-184zM563 1262l-307 315h223l268 -315h-184z" />
    <glyph glyph-name="uacute" unicode="&#xfa;" horiz-adv-x="1221" 
d="M879 0v88q-113 -57 -209 -87t-183 -30q-104 0 -169 34t-101.5 93t-49.5 138.5t-13 171.5v718h182v-718q0 -77 7.5 -130t28.5 -86t58 -48t96 -15q66 0 153 25.5t200 74.5v897h184v-1126h-184zM499 1262l269 315h223l-307 -315h-185z" />
    <glyph glyph-name="ucircumflex" unicode="&#xfb;" horiz-adv-x="1221" 
d="M879 0v88q-113 -57 -209 -87t-183 -30q-104 0 -169 34t-101.5 93t-49.5 138.5t-13 171.5v718h182v-718q0 -77 7.5 -130t28.5 -86t58 -48t96 -15q66 0 153 25.5t200 74.5v897h184v-1126h-184zM827 1262l-215 215l-213 -215h-184l276 315h244l276 -315h-184z" />
    <glyph glyph-name="udieresis" unicode="&#xfc;" horiz-adv-x="1221" 
d="M879 0v88q-113 -57 -209 -87t-183 -30q-104 0 -169 34t-101.5 93t-49.5 138.5t-13 171.5v718h182v-718q0 -77 7.5 -130t28.5 -86t58 -48t96 -15q66 0 153 25.5t200 74.5v897h184v-1126h-184zM764 1317v242h165v-242h-165zM295 1317v242h167v-242h-167z" />
    <glyph glyph-name="yacute" unicode="&#xfd;" horiz-adv-x="1120" 
d="M454 1262l269 315h223l-307 -315h-185zM494 0l-437 1126h203l229 -632q13 -38 24.5 -72.5t22.5 -70t22.5 -73.5t25.5 -83q10 45 20 83t20.5 73t21.5 70.5t24 74.5l207 630h196l-428 -1226q-29 -81 -59 -147t-72 -112.5t-101.5 -72t-146.5 -25.5q-72 0 -131 7.5t-88 13.5
v141q33 -2 60 -3.5t51.5 -2.5t49 -1.5t52.5 -0.5q42 0 70 11.5t50 37.5t41 68t42 104z" />
    <glyph glyph-name="thorn" unicode="&#xfe;" horiz-adv-x="1182" 
d="M158 -430v2015h182v-532q80 52 155 77t158 25q100 0 177.5 -29.5t130.5 -91t80.5 -155t27.5 -220.5v-172q0 -147 -36.5 -246t-100.5 -158.5t-151 -84.5t-187 -25q-59 0 -122 8.5t-132 22.5v-434h-182zM887 659q0 89 -16 152.5t-48 104t-79.5 59t-110.5 18.5q-33 0 -64 -4
t-65.5 -13.5t-74 -25.5t-89.5 -41v-751q34 -6 69.5 -11.5t68.5 -9.5t62 -6t52 -2q67 0 122 15.5t93 55.5t59 109.5t21 177.5v172z" />
    <glyph glyph-name="ydieresis" unicode="&#xff;" horiz-adv-x="1120" 
d="M736 1317v242h165v-242h-165zM267 1317v242h167v-242h-167zM494 0l-437 1126h203l229 -632q13 -38 24.5 -72.5t22.5 -70t22.5 -73.5t25.5 -83q10 45 20 83t20.5 73t21.5 70.5t24 74.5l207 630h196l-428 -1226q-29 -81 -59 -147t-72 -112.5t-101.5 -72t-146.5 -25.5
q-72 0 -131 7.5t-88 13.5v141q33 -2 60 -3.5t51.5 -2.5t49 -1.5t52.5 -0.5q42 0 70 11.5t50 37.5t41 68t42 104z" />
    <glyph glyph-name="Amacron" unicode="&#x100;" horiz-adv-x="1358" 
d="M1106 0l-158 498h-545l-161 -498h-191l498 1522h260l498 -1522h-201zM748 1114q-20 62 -35 122t-27 128h-20q-14 -68 -28 -128t-34 -122l-145 -444h432zM328 1687v144h702v-144h-702z" />
    <glyph glyph-name="amacron" unicode="&#x101;" horiz-adv-x="1116" 
d="M797 0v76q-26 -18 -61.5 -36.5t-80.5 -33.5t-99.5 -25t-117.5 -10q-79 0 -141.5 18.5t-105.5 57.5t-66 99.5t-23 144.5v41q0 111 36.5 179.5t104.5 106t163.5 50t214.5 12.5h167v82q0 73 -9.5 119t-38 72t-80 36t-136.5 10q-47 0 -90 -2t-85 -5t-84.5 -7.5t-88.5 -9.5
v131q12 4 46 12.5t82.5 16.5t109 14t125.5 6q140 0 225.5 -25.5t132 -75t61.5 -123t15 -169.5v-762h-176zM788 541h-167q-89 0 -152.5 -7.5t-104 -29.5t-59 -63.5t-18.5 -108.5v-56q0 -47 14 -78t39 -49.5t59.5 -26t75.5 -7.5q50 0 98.5 9.5t90.5 23.5t74 29.5t50 27.5v336z
M211 1341v144h702v-144h-702z" />
    <glyph glyph-name="Abreve" unicode="&#x102;" horiz-adv-x="1358" 
d="M1106 0l-158 498h-545l-161 -498h-191l498 1522h260l498 -1522h-201zM748 1114q-20 62 -35 122t-27 128h-20q-14 -68 -28 -128t-34 -122l-145 -444h432zM1024 1933q-5 -66 -25 -124t-60.5 -100.5t-104 -67.5t-156.5 -25t-156.5 25t-104 67.5t-60 100.5t-23.5 124h137
q5 -54 20.5 -91.5t41 -60.5t61.5 -33t84 -10t84.5 10t62 33t41 60.5t21.5 91.5h137z" />
    <glyph glyph-name="abreve" unicode="&#x103;" horiz-adv-x="1116" 
d="M797 0v76q-26 -18 -61.5 -36.5t-80.5 -33.5t-99.5 -25t-117.5 -10q-79 0 -141.5 18.5t-105.5 57.5t-66 99.5t-23 144.5v41q0 111 36.5 179.5t104.5 106t163.5 50t214.5 12.5h167v82q0 73 -9.5 119t-38 72t-80 36t-136.5 10q-47 0 -90 -2t-85 -5t-84.5 -7.5t-88.5 -9.5
v131q12 4 46 12.5t82.5 16.5t109 14t125.5 6q140 0 225.5 -25.5t132 -75t61.5 -123t15 -169.5v-762h-176zM788 541h-167q-89 0 -152.5 -7.5t-104 -29.5t-59 -63.5t-18.5 -108.5v-56q0 -47 14 -78t39 -49.5t59.5 -26t75.5 -7.5q50 0 98.5 9.5t90.5 23.5t74 29.5t50 27.5v336z
M922 1579q-5 -66 -25 -124t-60.5 -100.5t-104 -67.5t-156.5 -25t-156.5 25t-104 67.5t-60 100.5t-23.5 124h137q5 -54 20.5 -91.5t41 -60.5t61.5 -33t84 -10t84.5 10t62 33t41 60.5t21.5 91.5h137z" />
    <glyph glyph-name="Aogonek" unicode="&#x104;" horiz-adv-x="1358" 
d="M1307 -424q-17 -6 -63 -13t-111 -7q-130 0 -195.5 54t-65.5 148q0 69 59 137.5t169 120.5l-152 482h-545l-161 -498h-191l498 1522h260l498 -1522q-92 -42 -147.5 -76t-84.5 -62t-38 -51t-9 -44t5.5 -38.5t19.5 -30t37.5 -19.5t58.5 -7q38 0 77 3.5t81 7.5v-107z
M748 1114q-20 62 -35 122t-27 128h-20q-14 -68 -28 -128t-34 -122l-145 -444h432z" />
    <glyph glyph-name="aogonek" unicode="&#x105;" horiz-adv-x="1116" 
d="M973 -424q-17 -6 -63 -13t-111 -7q-130 0 -195 54t-65 148q0 45 20.5 80t55.5 64t82 53.5t100 48.5v88q-26 -18 -61.5 -39t-80.5 -39t-99.5 -30.5t-117.5 -12.5q-79 0 -141.5 18.5t-105.5 57.5t-66 99.5t-23 144.5v41q0 111 36.5 179.5t104.5 106t163.5 50t214.5 12.5
h167v82q0 73 -9.5 119t-38 72t-80 36t-136.5 10q-47 0 -90 -2t-85 -5t-84.5 -7.5t-88.5 -9.5v131q12 4 46 12.5t82.5 16.5t109 14t125.5 6q140 0 225.5 -25.5t132 -75t61.5 -123t15 -169.5v-762q-92 -42 -147.5 -76t-84.5 -62t-38 -51t-9 -44t5.5 -38.5t19.5 -30t37.5 -19.5
t58.5 -7q38 0 77 3.5t81 7.5v-107zM788 541h-167q-89 0 -152.5 -7.5t-104 -29.5t-59 -63.5t-18.5 -108.5v-56q0 -47 14 -78t39 -49.5t59.5 -26t75.5 -7.5q50 0 98.5 12t90.5 29t74 35t50 30v320z" />
    <glyph glyph-name="Cacute" unicode="&#x106;" horiz-adv-x="1141" 
d="M1079 6q-23 -4 -61.5 -10t-85.5 -11.5t-100 -9.5t-105 -4q-87 0 -166.5 12t-147.5 41t-123.5 78t-94.5 123t-60.5 175t-21.5 235v252q0 133 21.5 234t60.5 174t94.5 121.5t123.5 77.5t147.5 40.5t166.5 11.5q52 0 105 -4t100 -9.5t85.5 -11.5t61.5 -10v-153
q-35 3 -78.5 6.5t-90 6.5t-94 5t-89.5 2q-108 0 -188 -24t-133 -81t-79 -151t-26 -235v-252q0 -141 26 -235.5t79 -152t133 -82t188 -24.5q42 0 89.5 2t94 4.5t90 6t78.5 6.5v-154zM563 1616l269 315h223l-307 -315h-185z" />
    <glyph glyph-name="cacute" unicode="&#x107;" horiz-adv-x="977" 
d="M885 10q-15 -5 -44 -11.5t-70 -12.5t-94 -10.5t-114 -4.5q-115 0 -200 34t-140.5 99.5t-82.5 160t-27 214.5v170q0 121 27 215.5t82.5 159t140.5 98t200 33.5q61 0 114 -4.5t94 -10.5t70 -13t44 -11v-139q-103 11 -176.5 15.5t-118.5 4.5q-68 0 -122 -15t-92 -54
t-58.5 -106.5t-20.5 -172.5v-170q0 -105 20.5 -173t58.5 -107t92 -54.5t122 -15.5q45 0 118.5 5t176.5 16v-140zM452 1262l269 315h223l-307 -315h-185z" />
    <glyph glyph-name="Ccircumflex" unicode="&#x108;" horiz-adv-x="1141" 
d="M1079 6q-23 -4 -61.5 -10t-85.5 -11.5t-100 -9.5t-105 -4q-87 0 -166.5 12t-147.5 41t-123.5 78t-94.5 123t-60.5 175t-21.5 235v252q0 133 21.5 234t60.5 174t94.5 121.5t123.5 77.5t147.5 40.5t166.5 11.5q52 0 105 -4t100 -9.5t85.5 -11.5t61.5 -10v-153
q-35 3 -78.5 6.5t-90 6.5t-94 5t-89.5 2q-108 0 -188 -24t-133 -81t-79 -151t-26 -235v-252q0 -141 26 -235.5t79 -152t133 -82t188 -24.5q42 0 89.5 2t94 4.5t90 6t78.5 6.5v-154zM864 1616l-215 215l-213 -215h-184l276 315h244l276 -315h-184z" />
    <glyph glyph-name="ccircumflex" unicode="&#x109;" horiz-adv-x="977" 
d="M885 10q-15 -5 -44 -11.5t-70 -12.5t-94 -10.5t-114 -4.5q-115 0 -200 34t-140.5 99.5t-82.5 160t-27 214.5v170q0 121 27 215.5t82.5 159t140.5 98t200 33.5q61 0 114 -4.5t94 -10.5t70 -13t44 -11v-139q-103 11 -176.5 15.5t-118.5 4.5q-68 0 -122 -15t-92 -54
t-58.5 -106.5t-20.5 -172.5v-170q0 -105 20.5 -173t58.5 -107t92 -54.5t122 -15.5q45 0 118.5 5t176.5 16v-140zM766 1262l-215 215l-213 -215h-184l276 315h244l276 -315h-184z" />
    <glyph glyph-name="Cdotaccent" unicode="&#x10a;" horiz-adv-x="1141" 
d="M1079 6q-23 -4 -61.5 -10t-85.5 -11.5t-100 -9.5t-105 -4q-87 0 -166.5 12t-147.5 41t-123.5 78t-94.5 123t-60.5 175t-21.5 235v252q0 133 21.5 234t60.5 174t94.5 121.5t123.5 77.5t147.5 40.5t166.5 11.5q52 0 105 -4t100 -9.5t85.5 -11.5t61.5 -10v-153
q-35 3 -78.5 6.5t-90 6.5t-94 5t-89.5 2q-108 0 -188 -24t-133 -81t-79 -151t-26 -235v-252q0 -141 26 -235.5t79 -152t133 -82t188 -24.5q42 0 89.5 2t94 4.5t90 6t78.5 6.5v-154zM594 1657v246h182v-246h-182z" />
    <glyph glyph-name="cdotaccent" unicode="&#x10b;" horiz-adv-x="977" 
d="M885 10q-15 -5 -44 -11.5t-70 -12.5t-94 -10.5t-114 -4.5q-115 0 -200 34t-140.5 99.5t-82.5 160t-27 214.5v170q0 121 27 215.5t82.5 159t140.5 98t200 33.5q61 0 114 -4.5t94 -10.5t70 -13t44 -11v-139q-103 11 -176.5 15.5t-118.5 4.5q-68 0 -122 -15t-92 -54
t-58.5 -106.5t-20.5 -172.5v-170q0 -105 20.5 -173t58.5 -107t92 -54.5t122 -15.5q45 0 118.5 5t176.5 16v-140zM490 1333v246h182v-246h-182z" />
    <glyph glyph-name="Ccaron" unicode="&#x10c;" horiz-adv-x="1141" 
d="M1079 6q-23 -4 -61.5 -10t-85.5 -11.5t-100 -9.5t-105 -4q-87 0 -166.5 12t-147.5 41t-123.5 78t-94.5 123t-60.5 175t-21.5 235v252q0 133 21.5 234t60.5 174t94.5 121.5t123.5 77.5t147.5 40.5t166.5 11.5q52 0 105 -4t100 -9.5t85.5 -11.5t61.5 -10v-153
q-35 3 -78.5 6.5t-90 6.5t-94 5t-89.5 2q-108 0 -188 -24t-133 -81t-79 -151t-26 -235v-252q0 -141 26 -235.5t79 -152t133 -82t188 -24.5q42 0 89.5 2t94 4.5t90 6t78.5 6.5v-154zM563 1616l-276 315h184l213 -217l215 217h184l-276 -315h-244z" />
    <glyph glyph-name="ccaron" unicode="&#x10d;" horiz-adv-x="977" 
d="M885 10q-15 -5 -44 -11.5t-70 -12.5t-94 -10.5t-114 -4.5q-115 0 -200 34t-140.5 99.5t-82.5 160t-27 214.5v170q0 121 27 215.5t82.5 159t140.5 98t200 33.5q61 0 114 -4.5t94 -10.5t70 -13t44 -11v-139q-103 11 -176.5 15.5t-118.5 4.5q-68 0 -122 -15t-92 -54
t-58.5 -106.5t-20.5 -172.5v-170q0 -105 20.5 -173t58.5 -107t92 -54.5t122 -15.5q45 0 118.5 5t176.5 16v-140zM436 1262l-276 315h184l213 -217l215 217h184l-276 -315h-244z" />
    <glyph glyph-name="Dcaron" unicode="&#x10e;" horiz-adv-x="1380" 
d="M174 0v1522h426q177 0 303.5 -45t207.5 -128t119 -200.5t38 -261.5v-248q0 -145 -35.5 -263t-115 -201.5t-206.5 -129t-311 -45.5h-426zM1077 887q0 130 -31 219t-93 144t-154 79.5t-215 24.5h-222v-1188h222q123 0 215 25t154 81.5t93 146.5t31 220v248zM567 1614
l-276 315h184l213 -217l215 217h184l-276 -315h-244z" />
    <glyph glyph-name="dcaron" unicode="&#x10f;" horiz-adv-x="1415" 
d="M1163 1116l98 469h195l-152 -469h-141zM848 0v57q-57 -34 -136.5 -60t-179.5 -26q-99 0 -177 28.5t-131.5 88t-82 150t-28.5 215.5v194q0 151 35.5 249.5t98 156t147.5 80t184 22.5q68 0 132 -7.5t132 -21.5v459h184v-1585h-178zM842 973q-35 6 -70 11t-68 8t-62 5t-52 2
q-68 0 -122.5 -12.5t-92.5 -50.5t-58 -107t-20 -182v-194q0 -168 64.5 -246t205.5 -78q76 0 144 19.5t131 50.5v774z" />
    <glyph glyph-name="Dcroat" unicode="&#x110;" horiz-adv-x="1380" 
d="M1268 639q0 -145 -35.5 -263t-115 -201.5t-206.5 -129t-311 -45.5h-426v707h-108v165h108v650h426q177 0 303.5 -45t207.5 -128t119 -200.5t38 -261.5v-248zM1077 887q0 130 -31 219t-93 144t-154 79.5t-215 24.5h-222v-482h308v-165h-308v-541h222q123 0 215 25
t154 81.5t93 146.5t31 220v248z" />
    <glyph glyph-name="dcroat" unicode="&#x111;" horiz-adv-x="1200" 
d="M848 0v57q-57 -34 -136.5 -60t-179.5 -26q-99 0 -177 28.5t-131.5 88t-82 150t-28.5 215.5v194q0 151 35.5 249.5t98 156t147.5 80t184 22.5q68 0 132 -7.5t132 -21.5v158h-350v160h350v141h184v-141h123v-160h-123v-1284h-178zM842 973q-35 6 -70 11t-68 8t-62 5t-52 2
q-68 0 -122.5 -12.5t-92.5 -50.5t-58 -107t-20 -182v-194q0 -168 64.5 -246t205.5 -78q76 0 144 19.5t131 50.5v774z" />
    <glyph glyph-name="Emacron" unicode="&#x112;" horiz-adv-x="1188" 
d="M174 0v1522h901v-168h-713v-480h670v-169h-670v-539h713v-166h-901zM281 1687v144h702v-144h-702z" />
    <glyph glyph-name="emacron" unicode="&#x113;" horiz-adv-x="1186" 
d="M1030 16q-59 -15 -160 -30t-241 -15q-150 0 -249.5 33.5t-158.5 101.5t-83.5 169.5t-24.5 238.5v86q0 133 29.5 236t89 174t149 108t209.5 37q249 0 366 -147t117 -430v-82h-776v-23q0 -73 9.5 -135.5t44 -108.5t102 -72t184.5 -26q47 0 99.5 2.5t104.5 7t100.5 10.5
t88.5 13v-148zM883 668q0 34 -3.5 71.5t-14 74t-30 69.5t-51.5 58t-79.5 39.5t-112.5 14.5q-64 0 -111 -14.5t-79.5 -39.5t-52.5 -58t-31 -69.5t-15 -74t-4 -71.5v-21h584v21zM236 1341v144h702v-144h-702z" />
    <glyph glyph-name="Ebreve" unicode="&#x114;" horiz-adv-x="1188" 
d="M174 0v1522h901v-168h-713v-480h670v-169h-670v-539h713v-166h-901zM983 1933q-5 -66 -25 -124t-60.5 -100.5t-104 -67.5t-156.5 -25t-156.5 25t-104 67.5t-60 100.5t-23.5 124h137q5 -54 20.5 -91.5t41 -60.5t61.5 -33t84 -10t84.5 10t62 33t41 60.5t21.5 91.5h137z" />
    <glyph glyph-name="ebreve" unicode="&#x115;" horiz-adv-x="1186" 
d="M1030 16q-59 -15 -160 -30t-241 -15q-150 0 -249.5 33.5t-158.5 101.5t-83.5 169.5t-24.5 238.5v86q0 133 29.5 236t89 174t149 108t209.5 37q249 0 366 -147t117 -430v-82h-776v-23q0 -73 9.5 -135.5t44 -108.5t102 -72t184.5 -26q47 0 99.5 2.5t104.5 7t100.5 10.5
t88.5 13v-148zM883 668q0 34 -3.5 71.5t-14 74t-30 69.5t-51.5 58t-79.5 39.5t-112.5 14.5q-64 0 -111 -14.5t-79.5 -39.5t-52.5 -58t-31 -69.5t-15 -74t-4 -71.5v-21h584v21zM940 1577q-5 -66 -25 -124t-60.5 -100.5t-104 -67.5t-156.5 -25t-156.5 25t-104 67.5t-60 100.5
t-23.5 124h137q5 -54 20.5 -91.5t41 -60.5t61.5 -33t84 -10t84.5 10t62 33t41 60.5t21.5 91.5h137z" />
    <glyph glyph-name="Edotaccent" unicode="&#x116;" horiz-adv-x="1188" 
d="M174 0v1522h901v-168h-713v-480h670v-169h-670v-539h713v-166h-901zM535 1657v246h182v-246h-182z" />
    <glyph glyph-name="edotaccent" unicode="&#x117;" horiz-adv-x="1186" 
d="M1030 16q-59 -15 -160 -30t-241 -15q-150 0 -249.5 33.5t-158.5 101.5t-83.5 169.5t-24.5 238.5v86q0 133 29.5 236t89 174t149 108t209.5 37q249 0 366 -147t117 -430v-82h-776v-23q0 -73 9.5 -135.5t44 -108.5t102 -72t184.5 -26q47 0 99.5 2.5t104.5 7t100.5 10.5
t88.5 13v-148zM883 668q0 34 -3.5 71.5t-14 74t-30 69.5t-51.5 58t-79.5 39.5t-112.5 14.5q-64 0 -111 -14.5t-79.5 -39.5t-52.5 -58t-31 -69.5t-15 -74t-4 -71.5v-21h584v21zM496 1333v246h182v-246h-182z" />
    <glyph glyph-name="Eogonek" unicode="&#x118;" horiz-adv-x="1188" 
d="M1075 -424q-17 -6 -63 -13t-111 -7q-130 0 -195 54t-65 148q0 65 50.5 128t146.5 114h-664v1522h901v-168h-713v-480h670v-169h-670v-539h713v-166q-92 -42 -147 -76t-84 -62t-38 -51t-9 -44t5.5 -38.5t19.5 -30t37 -19.5t59 -7q38 0 76.5 3.5t80.5 7.5v-107z" />
    <glyph glyph-name="eogonek" unicode="&#x119;" horiz-adv-x="1186" 
d="M1059 -424q-17 -6 -63 -13t-111 -7q-130 0 -195 54t-65 148q0 57 33.5 112.5t107.5 106.5q-65 -6 -137 -6q-150 0 -249.5 33.5t-158.5 101.5t-83.5 169.5t-24.5 238.5v86q0 133 29.5 236t89 174t149 108t209.5 37q249 0 366 -147t117 -430v-82h-776v-23q0 -73 9.5 -135.5
t44 -108.5t102 -72t184.5 -26q47 0 99.5 2.5t104.5 7t100.5 10.5t88.5 13v-148q-92 -49 -142.5 -86.5t-74.5 -66.5t-28.5 -52t-4.5 -44t5.5 -38.5t19.5 -30t37.5 -19.5t58.5 -7q38 0 77 3.5t81 7.5v-107zM883 668q0 34 -3.5 71.5t-14 74t-30 69.5t-51.5 58t-79.5 39.5
t-112.5 14.5q-64 0 -111 -14.5t-79.5 -39.5t-52.5 -58t-31 -69.5t-15 -74t-4 -71.5v-21h584v21z" />
    <glyph glyph-name="Ecaron" unicode="&#x11a;" horiz-adv-x="1188" 
d="M174 0v1522h901v-168h-713v-480h670v-169h-670v-539h713v-166h-901zM514 1616l-276 315h184l213 -217l215 217h184l-276 -315h-244z" />
    <glyph glyph-name="ecaron" unicode="&#x11b;" horiz-adv-x="1186" 
d="M1030 16q-59 -15 -160 -30t-241 -15q-150 0 -249.5 33.5t-158.5 101.5t-83.5 169.5t-24.5 238.5v86q0 133 29.5 236t89 174t149 108t209.5 37q249 0 366 -147t117 -430v-82h-776v-23q0 -73 9.5 -135.5t44 -108.5t102 -72t184.5 -26q47 0 99.5 2.5t104.5 7t100.5 10.5
t88.5 13v-148zM883 668q0 34 -3.5 71.5t-14 74t-30 69.5t-51.5 58t-79.5 39.5t-112.5 14.5q-64 0 -111 -14.5t-79.5 -39.5t-52.5 -58t-31 -69.5t-15 -74t-4 -71.5v-21h584v21zM493 1262l-276 315h184l213 -217l215 217h184l-276 -315h-244z" />
    <glyph glyph-name="Gcircumflex" unicode="&#x11c;" horiz-adv-x="1298" 
d="M977 791h188v-777q-23 -5 -66.5 -12t-102 -14t-130 -12t-149.5 -5q-127 0 -237 31.5t-191.5 107t-128.5 201.5t-47 316v268q0 134 24 234t66 172.5t100 119.5t125 75t141.5 39t149.5 11q83 0 160 -5.5t137.5 -12.5t100.5 -13.5t48 -7.5v-151q-23 2 -56.5 4.5t-73 5
t-82 4.5t-81.5 4t-72.5 3t-54.5 1q-97 0 -178 -17t-139.5 -68.5t-91.5 -146.5t-33 -251v-268q0 -145 29 -239t85 -148.5t137.5 -75.5t186.5 -21q66 0 127.5 1.5t108.5 5.5v641zM899 1616l-215 215l-213 -215h-184l276 315h244l276 -315h-184z" />
    <glyph glyph-name="gcircumflex" unicode="&#x11d;" horiz-adv-x="1184" 
d="M842 -6q-14 -2 -39.5 -5.5t-57 -7t-66 -6t-65.5 -2.5q-119 0 -212 26t-157.5 86.5t-98 160.5t-33.5 248v141q0 130 28.5 227.5t89.5 162.5t157.5 97.5t232.5 32.5q50 0 103.5 -2.5t106.5 -6.5t103 -9t92 -11v-1189q0 -87 -17 -159.5t-65 -124.5t-132.5 -81t-219.5 -29
q-65 0 -132.5 5.5t-126 12t-100.5 13.5t-55 10v133q93 -6 199.5 -11t214.5 -5q84 0 133.5 15t75.5 44.5t33.5 73.5t7.5 103v57zM842 985q-9 1 -30 3.5t-51 5t-66 4t-74 1.5q-95 0 -157.5 -22.5t-99.5 -68t-52 -114t-15 -159.5v-141q0 -106 17.5 -176.5t56 -112.5t99 -59
t146.5 -17q31 0 66.5 2t67 5t56.5 6t36 5v838zM813 1262l-215 215l-213 -215h-184l276 315h244l276 -315h-184z" />
    <glyph glyph-name="Gbreve" unicode="&#x11e;" horiz-adv-x="1298" 
d="M977 791h188v-777q-23 -5 -66.5 -12t-102 -14t-130 -12t-149.5 -5q-127 0 -237 31.5t-191.5 107t-128.5 201.5t-47 316v268q0 134 24 234t66 172.5t100 119.5t125 75t141.5 39t149.5 11q83 0 160 -5.5t137.5 -12.5t100.5 -13.5t48 -7.5v-151q-23 2 -56.5 4.5t-73 5
t-82 4.5t-81.5 4t-72.5 3t-54.5 1q-97 0 -178 -17t-139.5 -68.5t-91.5 -146.5t-33 -251v-268q0 -145 29 -239t85 -148.5t137.5 -75.5t186.5 -21q66 0 127.5 1.5t108.5 5.5v641zM1055 1931q-5 -66 -25 -124t-60.5 -100.5t-104 -67.5t-156.5 -25t-156.5 25t-104 67.5
t-60 100.5t-23.5 124h137q5 -54 20.5 -91.5t41 -60.5t61.5 -33t84 -10t84.5 10t62 33t41 60.5t21.5 91.5h137z" />
    <glyph glyph-name="gbreve" unicode="&#x11f;" horiz-adv-x="1184" 
d="M842 -6q-14 -2 -39.5 -5.5t-57 -7t-66 -6t-65.5 -2.5q-119 0 -212 26t-157.5 86.5t-98 160.5t-33.5 248v141q0 130 28.5 227.5t89.5 162.5t157.5 97.5t232.5 32.5q50 0 103.5 -2.5t106.5 -6.5t103 -9t92 -11v-1189q0 -87 -17 -159.5t-65 -124.5t-132.5 -81t-219.5 -29
q-65 0 -132.5 5.5t-126 12t-100.5 13.5t-55 10v133q93 -6 199.5 -11t214.5 -5q84 0 133.5 15t75.5 44.5t33.5 73.5t7.5 103v57zM842 985q-9 1 -30 3.5t-51 5t-66 4t-74 1.5q-95 0 -157.5 -22.5t-99.5 -68t-52 -114t-15 -159.5v-141q0 -106 17.5 -176.5t56 -112.5t99 -59
t146.5 -17q31 0 66.5 2t67 5t56.5 6t36 5v838zM944 1577q-5 -66 -25 -124t-60.5 -100.5t-104 -67.5t-156.5 -25t-156.5 25t-104 67.5t-60 100.5t-23.5 124h137q5 -54 20.5 -91.5t41 -60.5t61.5 -33t84 -10t84.5 10t62 33t41 60.5t21.5 91.5h137z" />
    <glyph glyph-name="Gdotaccent" unicode="&#x120;" horiz-adv-x="1298" 
d="M977 791h188v-777q-23 -5 -66.5 -12t-102 -14t-130 -12t-149.5 -5q-127 0 -237 31.5t-191.5 107t-128.5 201.5t-47 316v268q0 134 24 234t66 172.5t100 119.5t125 75t141.5 39t149.5 11q83 0 160 -5.5t137.5 -12.5t100.5 -13.5t48 -7.5v-151q-23 2 -56.5 4.5t-73 5
t-82 4.5t-81.5 4t-72.5 3t-54.5 1q-97 0 -178 -17t-139.5 -68.5t-91.5 -146.5t-33 -251v-268q0 -145 29 -239t85 -148.5t137.5 -75.5t186.5 -21q66 0 127.5 1.5t108.5 5.5v641zM617 1657v246h182v-246h-182z" />
    <glyph glyph-name="gdotaccent" unicode="&#x121;" horiz-adv-x="1184" 
d="M842 -6q-14 -2 -39.5 -5.5t-57 -7t-66 -6t-65.5 -2.5q-119 0 -212 26t-157.5 86.5t-98 160.5t-33.5 248v141q0 130 28.5 227.5t89.5 162.5t157.5 97.5t232.5 32.5q50 0 103.5 -2.5t106.5 -6.5t103 -9t92 -11v-1189q0 -87 -17 -159.5t-65 -124.5t-132.5 -81t-219.5 -29
q-65 0 -132.5 5.5t-126 12t-100.5 13.5t-55 10v133q93 -6 199.5 -11t214.5 -5q84 0 133.5 15t75.5 44.5t33.5 73.5t7.5 103v57zM842 985q-9 1 -30 3.5t-51 5t-66 4t-74 1.5q-95 0 -157.5 -22.5t-99.5 -68t-52 -114t-15 -159.5v-141q0 -106 17.5 -176.5t56 -112.5t99 -59
t146.5 -17q31 0 66.5 2t67 5t56.5 6t36 5v838zM508 1333v246h182v-246h-182z" />
    <glyph glyph-name="Gcommaaccent" unicode="&#x122;" horiz-adv-x="1298" 
d="M977 791h188v-777q-23 -5 -66.5 -12t-102 -14t-130 -12t-149.5 -5q-127 0 -237 31.5t-191.5 107t-128.5 201.5t-47 316v268q0 134 24 234t66 172.5t100 119.5t125 75t141.5 39t149.5 11q83 0 160 -5.5t137.5 -12.5t100.5 -13.5t48 -7.5v-151q-23 2 -56.5 4.5t-73 5
t-82 4.5t-81.5 4t-72.5 3t-54.5 1q-97 0 -178 -17t-139.5 -68.5t-91.5 -146.5t-33 -251v-268q0 -145 29 -239t85 -148.5t137.5 -75.5t186.5 -21q66 0 127.5 1.5t108.5 5.5v641zM474 -430l137 291h213l-182 -291h-168z" />
    <glyph glyph-name="gcommaaccent" unicode="&#x123;" horiz-adv-x="1184" 
d="M842 -6q-14 -2 -39.5 -5.5t-57 -7t-66 -6t-65.5 -2.5q-119 0 -212 26t-157.5 86.5t-98 160.5t-33.5 248v141q0 130 28.5 227.5t89.5 162.5t157.5 97.5t232.5 32.5q50 0 103.5 -2.5t106.5 -6.5t103 -9t92 -11v-1189q0 -87 -17 -159.5t-65 -124.5t-132.5 -81t-219.5 -29
q-65 0 -132.5 5.5t-126 12t-100.5 13.5t-55 10v133q93 -6 199.5 -11t214.5 -5q84 0 133.5 15t75.5 44.5t33.5 73.5t7.5 103v57zM842 985q-9 1 -30 3.5t-51 5t-66 4t-74 1.5q-95 0 -157.5 -22.5t-99.5 -68t-52 -114t-15 -159.5v-141q0 -106 17.5 -176.5t56 -112.5t99 -59
t146.5 -17q31 0 66.5 2t67 5t56.5 6t36 5v838zM514 1262l182 290h168l-137 -290h-213z" />
    <glyph glyph-name="Hcircumflex" unicode="&#x124;" horiz-adv-x="1487" 
d="M1124 0v719h-762v-719h-188v1522h188v-633h762v633h189v-1522h-189zM963 1614l-215 215l-213 -215h-184l276 315h244l276 -315h-184z" />
    <glyph glyph-name="hcircumflex" unicode="&#x125;" horiz-adv-x="1221" 
d="M883 0v713q0 83 -11.5 137.5t-37 86.5t-66 45t-98.5 13q-48 0 -95.5 -7.5t-90.5 -19.5t-80 -26t-64 -27v-915h-182v1585h182v-522q27 14 64.5 30t84.5 30t101.5 23t116.5 9q184 0 272 -107.5t88 -328.5v-719h-184zM821 1616l-215 215l-213 -215h-184l276 315h244
l276 -315h-184z" />
    <glyph glyph-name="Hbar" unicode="&#x126;" horiz-adv-x="1487" 
d="M1124 0v719h-762v-719h-188v1108h-131v147h131v267h188v-267h762v267h189v-267h133v-147h-133v-1108h-189zM1124 1108h-762v-219h762v219z" />
    <glyph glyph-name="hbar" unicode="&#x127;" horiz-adv-x="1221" 
d="M883 0v713q0 83 -11.5 137.5t-37 86.5t-66 45t-98.5 13q-48 0 -95 -7.5t-89.5 -19.5t-79.5 -26t-64 -27v-915h-184v1292h-119v152h119v141h184v-141h356v-152h-356v-229q26 14 63.5 30t84.5 30t101.5 23t115.5 9q185 0 272.5 -107.5t87.5 -328.5v-719h-184z" />
    <glyph glyph-name="Itilde" unicode="&#x128;" horiz-adv-x="537" 
d="M174 0v1522h188v-1522h-188zM673 1855q0 -57 -9.5 -104t-33 -80.5t-61.5 -51.5t-95 -18t-106.5 21t-102.5 63l-84 68q-34 29 -59.5 43t-57.5 14q-43 0 -57 -32.5t-14 -92.5v-69h-133v69q0 58 11 105t35.5 80t63.5 51t94 18q29 0 54 -4.5t48.5 -13.5t47 -24t49.5 -36
l86 -69q32 -26 60.5 -43t60.5 -17q44 0 58 31.5t14 91.5v70h131v-70z" />
    <glyph glyph-name="itilde" unicode="&#x129;" horiz-adv-x="524" 
d="M170 0v1126h184v-1126h-184zM671 1507q0 -57 -9.5 -104t-33 -80.5t-61.5 -51.5t-95 -18t-106.5 21t-102.5 63l-84 68q-34 29 -59.5 43t-57.5 14q-43 0 -57 -32.5t-14 -92.5v-69h-133v69q0 58 11 105t35.5 80t63.5 51t94 18q29 0 54 -4.5t48.5 -13.5t47 -24t49.5 -36
l86 -69q32 -26 60.5 -43t60.5 -17q44 0 58 31.5t14 91.5v70h131v-70z" />
    <glyph glyph-name="Imacron" unicode="&#x12a;" horiz-adv-x="537" 
d="M174 0v1522h188v-1522h-188zM-81 1687v144h702v-144h-702z" />
    <glyph glyph-name="imacron" unicode="&#x12b;" horiz-adv-x="524" 
d="M170 0v1126h184v-1126h-184zM-87 1341v144h702v-144h-702z" />
    <glyph glyph-name="Ibreve" unicode="&#x12c;" horiz-adv-x="537" 
d="M174 0v1522h188v-1522h-188zM615 1933q-5 -66 -25 -124t-60.5 -100.5t-104 -67.5t-156.5 -25t-156.5 25t-104 67.5t-60 100.5t-23.5 124h137q5 -54 20.5 -91.5t41 -60.5t61.5 -33t84 -10t84.5 10t62 33t41 60.5t21.5 91.5h137z" />
    <glyph glyph-name="ibreve" unicode="&#x12d;" horiz-adv-x="524" 
d="M170 0v1126h184v-1126h-184zM609 1577q-5 -66 -25 -124t-60.5 -100.5t-104 -67.5t-156.5 -25t-156.5 25t-104 67.5t-60 100.5t-23.5 124h137q5 -54 20.5 -91.5t41 -60.5t61.5 -33t84 -10t84.5 10t62 33t41 60.5t21.5 91.5h137z" />
    <glyph glyph-name="Iogonek" unicode="&#x12e;" horiz-adv-x="537" 
d="M469 -424q-17 -6 -63 -13t-111 -7q-138 0 -199 54t-61 148q0 75 33.5 133.5t105.5 108.5v1522h188v-1522q-55 -32 -89 -65t-52.5 -63.5t-24.5 -57t-6 -47.5t6 -38.5t20 -30t38 -19.5t59 -7q39 0 76.5 3.5t79.5 7.5v-107z" />
    <glyph glyph-name="iogonek" unicode="&#x12f;" horiz-adv-x="524" 
d="M475 -424q-8 -3 -25.5 -6.5t-41 -6.5t-51.5 -5t-56 -2q-130 0 -195 54t-65 148q0 39 10.5 74t28 65.5t41 57.5t49.5 51v1120h184v-1126q-49 -38 -79.5 -71t-48 -62.5t-23.5 -54t-6 -45.5t5.5 -38.5t19 -30t37 -19.5t58.5 -7q45 0 81 3.5t77 7.5v-107zM170 1335v250h186
v-250h-186z" />
    <glyph glyph-name="Idotaccent" unicode="&#x130;" horiz-adv-x="537" 
d="M174 0v1522h188v-1522h-188zM179 1657v246h182v-246h-182z" />
    <glyph glyph-name="dotlessi" unicode="&#x131;" horiz-adv-x="524" 
d="M170 0v1126h184v-1126h-184z" />
    <glyph glyph-name="IJ" unicode="&#x132;" horiz-adv-x="1071" 
d="M174 0v1522h188v-1522h-188zM432 -291h139q48 0 75.5 9t42 29t18.5 52t4 78v1645h186v-1645q0 -84 -15.5 -145t-51.5 -101.5t-96 -60t-150 -19.5q-20 0 -42.5 1.5t-43.5 4t-39 5.5t-27 6v141z" />
    <glyph glyph-name="ij" unicode="&#x133;" horiz-adv-x="1067" 
d="M174 0v1126h184v-1126h-184zM174 1335v250h186v-250h-186zM471 -311q20 0 52 -1t69 -1t60 8.5t36 29t17 54t4 84.5v1263h184v-1263q0 -90 -14.5 -151.5t-48 -99t-88 -53.5t-134.5 -16q-19 0 -40.5 1t-40.5 2.5t-34 3.5t-22 4v135zM709 1335v250h186v-250h-186z" />
    <glyph glyph-name="Jcircumflex" unicode="&#x134;" horiz-adv-x="535" 
d="M-104 -291h32q84 0 133 3t74 19.5t32 50t7 95.5v1645h186v-1645q0 -84 -15 -145t-51.5 -101.5t-96.5 -60t-150 -19.5q-19 0 -41.5 1.5t-44 4t-39 5.5t-26.5 6v141zM482 1616l-215 215l-213 -215h-184l276 315h244l276 -315h-184z" />
    <glyph glyph-name="jcircumflex" unicode="&#x135;" horiz-adv-x="524" 
d="M-68 -309q20 0 52 -1t69 -1q38 0 61 8.5t35.5 29t16.5 54t4 84.5v1261h184v-1261q0 -90 -14.5 -151.5t-47.5 -99t-87.5 -53.5t-134.5 -16q-20 0 -41 1t-40.5 2.5t-34.5 3.5t-22 4v135zM477 1262l-215 215l-213 -215h-184l276 315h244l277 -315h-185z" />
    <glyph glyph-name="Kcommaaccent" unicode="&#x136;" horiz-adv-x="1298" 
d="M1010 0l-637 733v-733h-189v1522h189v-715l653 715h242l-686 -748l686 -774h-258zM474 -430l137 291h213l-182 -291h-168z" />
    <glyph glyph-name="kcommaaccent" unicode="&#x137;" horiz-adv-x="1069" 
d="M795 0l-455 559v-559h-182v1585h182v-967l453 508h237l-487 -534l495 -592h-243zM313 -430l137 291h213l-182 -291h-168z" />
    <glyph glyph-name="kgreenlandic" unicode="&#x138;" horiz-adv-x="1069" 
d="M795 0l-455 559v-559h-182v1126h182v-508l453 508h237l-487 -534l495 -592h-243z" />
    <glyph glyph-name="Lacute" unicode="&#x139;" horiz-adv-x="1110" 
d="M174 0v1522h188v-1356h697v-166h-885zM483 1616l269 315h223l-307 -315h-185z" />
    <glyph glyph-name="lacute" unicode="&#x13a;" horiz-adv-x="522" 
d="M170 0v1585h182v-1585h-182zM130 1616l269 315h223l-307 -315h-185z" />
    <glyph glyph-name="Lcommaaccent" unicode="&#x13b;" horiz-adv-x="1110" 
d="M174 0v1522h188v-1356h697v-166h-885zM398 -430l137 291h213l-182 -291h-168z" />
    <glyph glyph-name="lcommaaccent" unicode="&#x13c;" horiz-adv-x="522" 
d="M170 0v1585h182v-1585h-182zM18 -430l137 291h213l-182 -291h-168z" />
    <glyph glyph-name="Lcaron" unicode="&#x13d;" horiz-adv-x="1110" 
d="M627 1115l98 469h195l-152 -469h-141zM174 0v1522h188v-1356h697v-166h-885z" />
    <glyph glyph-name="lcaron" unicode="&#x13e;" horiz-adv-x="754" 
d="M502 1116l98 469h195l-152 -469h-141zM170 0v1585h182v-1585h-182z" />
    <glyph glyph-name="Ldot" unicode="&#x13f;" horiz-adv-x="1110" 
d="M615 713v283h184v-283h-184zM174 0v1522h188v-1356h697v-166h-885z" />
    <glyph glyph-name="ldot" unicode="&#x140;" horiz-adv-x="758" 
d="M533 614v283h184v-283h-184zM170 0v1585h182v-1585h-182z" />
    <glyph glyph-name="Lslash" unicode="&#x141;" horiz-adv-x="1149" 
d="M213 0v578l-174 -170v221l174 166v727h188v-537l213 213v-221l-213 -213v-598h697v-166h-885z" />
    <glyph glyph-name="lslash" unicode="&#x142;" horiz-adv-x="522" 
d="M170 0v606l-131 -127v223l131 127v756h184v-569l127 123v-224l-127 -122v-793h-184z" />
    <glyph glyph-name="Nacute" unicode="&#x143;" horiz-adv-x="1446" 
d="M1004 0l-537 1092q-28 57 -61 123.5t-62 134.5h-4q5 -76 7.5 -156.5t2.5 -161.5v-1032h-176v1522h270l531 -1063q14 -28 29.5 -60.5t32 -66.5t32 -68t29.5 -65h4q-6 91 -8 176.5t-2 156.5v990h180v-1522h-268zM606 1616l269 315h223l-307 -315h-185z" />
    <glyph glyph-name="nacute" unicode="&#x144;" horiz-adv-x="1221" 
d="M883 0v719q0 77 -7.5 130t-28.5 86t-58 47.5t-95 14.5q-66 0 -154 -25t-200 -75v-897h-182v1126h182v-88q98 51 189.5 84t185.5 33q112 0 181 -29.5t107 -85.5t51 -137t13 -184v-719h-184zM504 1262l269 315h223l-307 -315h-185z" />
    <glyph glyph-name="Ncommaaccent" unicode="&#x145;" horiz-adv-x="1446" 
d="M1004 0l-537 1092q-28 57 -61 123.5t-62 134.5h-4q5 -76 7.5 -156.5t2.5 -161.5v-1032h-176v1522h270l531 -1063q14 -28 29.5 -60.5t32 -66.5t32 -68t29.5 -65h4q-6 91 -8 176.5t-2 156.5v990h180v-1522h-268zM510 -430l137 291h213l-182 -291h-168z" />
    <glyph glyph-name="ncommaaccent" unicode="&#x146;" horiz-adv-x="1221" 
d="M883 0v719q0 77 -7.5 130t-28.5 86t-58 47.5t-95 14.5q-66 0 -154 -25t-200 -75v-897h-182v1126h182v-88q98 51 189.5 84t185.5 33q112 0 181 -29.5t107 -85.5t51 -137t13 -184v-719h-184zM373 -430l137 291h213l-182 -291h-168z" />
    <glyph glyph-name="Ncaron" unicode="&#x147;" horiz-adv-x="1446" 
d="M1004 0l-537 1092q-28 57 -61 123.5t-62 134.5h-4q5 -76 7.5 -156.5t2.5 -161.5v-1032h-176v1522h270l531 -1063q14 -28 29.5 -60.5t32 -66.5t32 -68t29.5 -65h4q-6 91 -8 176.5t-2 156.5v990h180v-1522h-268zM600 1616l-276 315h184l213 -217l215 217h184l-276 -315
h-244z" />
    <glyph glyph-name="ncaron" unicode="&#x148;" horiz-adv-x="1221" 
d="M883 0v719q0 77 -7.5 130t-28.5 86t-58 47.5t-95 14.5q-66 0 -154 -25t-200 -75v-897h-182v1126h182v-88q98 51 189.5 84t185.5 33q112 0 181 -29.5t107 -85.5t51 -137t13 -184v-719h-184zM504 1262l-276 315h184l213 -217l215 217h184l-276 -315h-244z" />
    <glyph glyph-name="napostrophe" unicode="&#x149;" horiz-adv-x="1343" 
d="M1004 0v719q0 77 -7.5 130t-28.5 86t-58 47.5t-95 14.5q-66 0 -154 -25t-200 -75v-897h-182v1126h182v-88q98 51 189.5 84t185.5 33q112 0 181 -29.5t107 -85.5t51 -137t13 -184v-719h-184zM-8 1116l98 469h195l-152 -469h-141z" />
    <glyph glyph-name="Eng" unicode="&#x14a;" horiz-adv-x="1446" 
d="M805 -291h141q47 0 74 9t41 29t18 52t4 78v123l-616 1092q-22 39 -39 72t-31.5 63.5t-27 60.5t-25.5 62h-4q5 -76 7.5 -156.5t2.5 -161.5v-1032h-176v1522h250l530 -934q21 -37 40 -71.5t36.5 -70.5t34 -75t33.5 -84h4q-3 45 -5 96t-3 101t-1.5 96t-0.5 82v860h180v-1645
q0 -84 -15.5 -145t-52.5 -101.5t-97.5 -60t-150.5 -19.5q-18 0 -40.5 1.5t-43.5 4t-39 5.5t-28 6v141z" />
    <glyph glyph-name="eng" unicode="&#x14b;" horiz-adv-x="1221" 
d="M645 -305q20 -2 52 -3t69 -1t60 8.5t36 29t17 54t4 84.5v852q0 77 -7.5 130t-28 86t-57 47.5t-94.5 14.5q-68 0 -155.5 -25t-198.5 -75v-897h-184v1126h182v-88q99 51 196 84t181 33q111 0 180 -29.5t106.5 -85.5t50.5 -137t13 -184v-852q0 -86 -14.5 -146.5t-47 -99
t-85.5 -56.5t-129 -18q-23 0 -45.5 2t-42.5 4t-35.5 4.5t-22.5 4.5v133z" />
    <glyph glyph-name="Omacron" unicode="&#x14c;" horiz-adv-x="1401" 
d="M1288 651q0 -163 -38.5 -289.5t-113.5 -213.5t-184.5 -132t-251.5 -45t-251.5 45t-184 132t-113 213.5t-38.5 289.5v217q0 163 38.5 289.5t113 212.5t184 131t251.5 45t251.5 -45t184.5 -131t113.5 -212.5t38.5 -289.5v-217zM1098 868q0 140 -29.5 237t-82 158t-125.5 88
t-161 27q-87 0 -160 -27t-125.5 -88t-82 -158t-29.5 -237v-217q0 -140 29.5 -237t82 -158.5t125.5 -89t160 -27.5q88 0 161 27.5t125.5 89t82 158.5t29.5 237v217zM348 1687v144h702v-144h-702z" />
    <glyph glyph-name="omacron" unicode="&#x14d;" horiz-adv-x="1186" 
d="M1073 481q0 -123 -30.5 -218t-91 -160t-150.5 -98.5t-209 -33.5t-208.5 33.5t-149.5 98.5t-90.5 160t-30.5 218v164q0 246 121 378t358 132q238 0 359.5 -132t121.5 -378v-164zM889 645q0 91 -17.5 157t-53.5 108.5t-92 62.5t-134 20q-152 0 -223.5 -82.5t-71.5 -265.5
v-164q0 -91 17.5 -157t53.5 -108.5t91.5 -62.5t132.5 -20q155 0 226 83t71 265v164zM242 1341v144h702v-144h-702z" />
    <glyph glyph-name="Obreve" unicode="&#x14e;" horiz-adv-x="1401" 
d="M1288 651q0 -163 -38.5 -289.5t-113.5 -213.5t-184.5 -132t-251.5 -45t-251.5 45t-184 132t-113 213.5t-38.5 289.5v217q0 163 38.5 289.5t113 212.5t184 131t251.5 45t251.5 -45t184.5 -131t113.5 -212.5t38.5 -289.5v-217zM1098 868q0 140 -29.5 237t-82 158t-125.5 88
t-161 27q-87 0 -160 -27t-125.5 -88t-82 -158t-29.5 -237v-217q0 -140 29.5 -237t82 -158.5t125.5 -89t160 -27.5q88 0 161 27.5t125.5 89t82 158.5t29.5 237v217zM1044 1931q-5 -66 -25 -124t-60.5 -100.5t-104 -67.5t-156.5 -25t-156.5 25t-104 67.5t-60 100.5t-23.5 124
h137q5 -54 20.5 -91.5t41 -60.5t61.5 -33t84 -10t84.5 10t62 33t41 60.5t21.5 91.5h137z" />
    <glyph glyph-name="obreve" unicode="&#x14f;" horiz-adv-x="1186" 
d="M1073 481q0 -123 -30.5 -218t-91 -160t-150.5 -98.5t-209 -33.5t-208.5 33.5t-149.5 98.5t-90.5 160t-30.5 218v164q0 246 121 378t358 132q238 0 359.5 -132t121.5 -378v-164zM889 645q0 91 -17.5 157t-53.5 108.5t-92 62.5t-134 20q-152 0 -223.5 -82.5t-71.5 -265.5
v-164q0 -91 17.5 -157t53.5 -108.5t91.5 -62.5t132.5 -20q155 0 226 83t71 265v164zM938 1577q-5 -66 -25 -124t-60.5 -100.5t-104 -67.5t-156.5 -25t-156.5 25t-104 67.5t-60 100.5t-23.5 124h137q5 -54 20.5 -91.5t41 -60.5t61.5 -33t84 -10t84.5 10t62 33t41 60.5
t21.5 91.5h137z" />
    <glyph glyph-name="Ohungarumlaut" unicode="&#x150;" horiz-adv-x="1401" 
d="M1288 651q0 -163 -38.5 -289.5t-113.5 -213.5t-184.5 -132t-251.5 -45t-251.5 45t-184 132t-113 213.5t-38.5 289.5v217q0 163 38.5 289.5t113 212.5t184 131t251.5 45t251.5 -45t184.5 -131t113.5 -212.5t38.5 -289.5v-217zM1098 868q0 140 -29.5 237t-82 158t-125.5 88
t-161 27q-87 0 -160 -27t-125.5 -88t-82 -158t-29.5 -237v-217q0 -140 29.5 -237t82 -158.5t125.5 -89t160 -27.5q88 0 161 27.5t125.5 89t82 158.5t29.5 237v217zM801 1613l270 316h223l-307 -316h-186zM367 1613l268 316h225l-307 -316h-186z" />
    <glyph glyph-name="ohungarumlaut" unicode="&#x151;" horiz-adv-x="1186" 
d="M1073 481q0 -123 -30.5 -218t-91 -160t-150.5 -98.5t-209 -33.5t-208.5 33.5t-149.5 98.5t-90.5 160t-30.5 218v164q0 246 121 378t358 132q238 0 359.5 -132t121.5 -378v-164zM889 645q0 91 -17.5 157t-53.5 108.5t-92 62.5t-134 20q-152 0 -223.5 -82.5t-71.5 -265.5
v-164q0 -91 17.5 -157t53.5 -108.5t91.5 -62.5t132.5 -20q155 0 226 83t71 265v164zM707 1261l270 316h223l-307 -316h-186zM273 1261l268 316h225l-307 -316h-186z" />
    <glyph glyph-name="OE" unicode="&#x152;" horiz-adv-x="1970" 
d="M993 0q-38 -5 -69 -10.5t-62.5 -9.5t-67.5 -6.5t-83 -2.5q-149 0 -261 45t-187 132t-112.5 213.5t-37.5 289.5v217q0 163 37.5 289.5t112.5 212.5t186.5 131t259.5 45q43 0 80 -2t70.5 -5t66 -7.5t67.5 -9.5h865v-168h-713v-480h670v-169h-670v-539h713v-166h-865z
M303 651q0 -140 29.5 -237t83 -158.5t128.5 -89t167 -27.5q31 0 57.5 1t54.5 3t59.5 6.5l73.5 10.5v1196q-40 6 -71.5 10t-60 7t-55.5 4t-58 1q-92 0 -167.5 -27t-129 -88t-82.5 -158t-29 -237v-217z" />
    <glyph glyph-name="oe" unicode="&#x153;" horiz-adv-x="1962" 
d="M1806 16q-29 -8 -71 -15.5t-93.5 -14.5t-111 -11t-123.5 -4q-87 0 -154.5 11.5t-120 32.5t-90.5 50.5t-65 65.5q-59 -77 -155 -118.5t-230 -41.5q-119 0 -208.5 33.5t-149.5 98.5t-90.5 160t-30.5 218v164q0 246 121 378t358 132q137 0 234.5 -43.5t156.5 -122.5
q57 81 153.5 123.5t229.5 42.5q124 0 215.5 -38t150.5 -110t88 -176t29 -237v-98h-776v-23q0 -72 8.5 -135t42.5 -110t102 -74t187 -27q113 0 209 10.5t184 26.5v-148zM1659 668q0 34 -3.5 72t-14 74.5t-30 69.5t-51.5 58t-79.5 40t-112.5 15q-64 0 -110 -14t-78.5 -37.5
t-52.5 -54.5t-31.5 -64t-16 -66t-4.5 -61v-53h584v21zM889 645q0 183 -71 267.5t-226 84.5q-152 0 -223.5 -84.5t-71.5 -267.5v-164q0 -182 70.5 -266t224.5 -84q155 0 226 84t71 266v164z" />
    <glyph glyph-name="Racute" unicode="&#x154;" horiz-adv-x="1305" 
d="M487 1616l269 315h223l-307 -315h-185zM1040 0l-358 594q-31 -2 -70 -2h-73h-177v-592h-188v1522h358q88 0 169.5 -7.5t152 -26.5t128.5 -52t99 -84.5t63.5 -124t22.5 -170.5q0 -92 -19.5 -161t-56.5 -120t-89.5 -85.5t-118.5 -57.5l381 -633h-224zM539 758
q111 0 193.5 13t137 46.5t81 91.5t26.5 148q0 95 -28 153.5t-84 90.5t-139 42.5t-194 10.5h-170v-596h177z" />
    <glyph glyph-name="racute" unicode="&#x155;" horiz-adv-x="770" 
d="M158 0v1126h180v-90q80 63 181.5 91t219.5 28v-164q-55 0 -112 -7.5t-110 -20t-99 -30t-78 -38.5v-895h-182zM344 1262l269 315h223l-307 -315h-185z" />
    <glyph glyph-name="Rcommaaccent" unicode="&#x156;" horiz-adv-x="1305" 
d="M453 -430l137 291h213l-182 -291h-168zM1040 0l-358 594q-31 -2 -70 -2h-73h-177v-592h-188v1522h358q88 0 169.5 -7.5t152 -26.5t128.5 -52t99 -84.5t63.5 -124t22.5 -170.5q0 -92 -19.5 -161t-56.5 -120t-89.5 -85.5t-118.5 -57.5l381 -633h-224zM539 758
q111 0 193.5 13t137 46.5t81 91.5t26.5 148q0 95 -28 153.5t-84 90.5t-139 42.5t-194 10.5h-170v-596h177z" />
    <glyph glyph-name="rcommaaccent" unicode="&#x157;" horiz-adv-x="770" 
d="M158 0v1126h180v-90q80 63 181.5 91t219.5 28v-164q-55 0 -112 -7.5t-110 -20t-99 -30t-78 -38.5v-895h-182zM173 -430l137 291h213l-182 -291h-168z" />
    <glyph glyph-name="Rcaron" unicode="&#x158;" horiz-adv-x="1305" 
d="M530 1614l-276 315h184l213 -217l215 217h184l-276 -315h-244zM1040 0l-358 594q-31 -2 -70 -2h-73h-177v-592h-188v1522h358q88 0 169.5 -7.5t152 -26.5t128.5 -52t99 -84.5t63.5 -124t22.5 -170.5q0 -92 -19.5 -161t-56.5 -120t-89.5 -85.5t-118.5 -57.5l381 -633h-224
zM539 758q111 0 193.5 13t137 46.5t81 91.5t26.5 148q0 95 -28 153.5t-84 90.5t-139 42.5t-194 10.5h-170v-596h177z" />
    <glyph glyph-name="rcaron" unicode="&#x159;" horiz-adv-x="770" 
d="M158 0v1126h180v-90q80 63 181.5 91t219.5 28v-164q-55 0 -112 -7.5t-110 -20t-99 -30t-78 -38.5v-895h-182zM329 1262l-276 315h184l213 -217l215 217h184l-276 -315h-244z" />
    <glyph glyph-name="Sacute" unicode="&#x15a;" horiz-adv-x="1198" 
d="M147 162q91 -11 198 -19t237 -8q77 0 135.5 14t97.5 44t58.5 77.5t19.5 114.5q0 45 -9.5 81.5t-33 68t-63.5 59t-101 55.5l-260 117q-76 34 -134.5 73t-98 88t-60 110.5t-20.5 140.5q0 188 122.5 278t374.5 90q69 0 135.5 -4.5t122.5 -10.5t98.5 -13t63.5 -13v-149
q-35 4 -83 8.5t-103 8.5t-114 6.5t-114 2.5q-75 0 -133.5 -10t-98 -33.5t-60.5 -62.5t-21 -98q0 -44 9 -79t32.5 -65t63 -56.5t100.5 -53.5l262 -115q80 -35 139 -76t98 -91.5t58.5 -113.5t19.5 -143q0 -198 -125.5 -306t-377.5 -108q-69 0 -138 4.5t-128 11.5t-103.5 14.5
t-65.5 12.5v148zM477 1616l269 315h223l-307 -315h-185z" />
    <glyph glyph-name="sacute" unicode="&#x15b;" horiz-adv-x="987" 
d="M117 158q25 -2 66 -7t89.5 -10t102 -8.5t104.5 -3.5q72 0 119 10t74.5 29t38 47.5t10.5 65.5t-8.5 63.5t-33 49.5t-69 46t-116.5 54l-82 34q-81 35 -140 70.5t-96.5 77t-55.5 90t-18 108.5q0 142 98 211.5t310 69.5q57 0 111.5 -4.5t100 -11t79.5 -13.5t49 -12v-137
q-45 4 -91.5 8t-90 6.5t-82.5 4t-68 1.5q-62 0 -105.5 -4.5t-71.5 -18t-41 -37.5t-13 -63q0 -33 8.5 -57.5t30 -46t59.5 -43t98 -47.5l82 -35q98 -44 163.5 -81t104.5 -77.5t55.5 -88.5t16.5 -113q0 -61 -18.5 -117.5t-66 -100t-129 -70t-206.5 -26.5q-59 0 -118.5 5.5
t-110.5 12.5t-88 14.5t-51 12.5v142zM399 1262l269 315h223l-307 -315h-185z" />
    <glyph glyph-name="Scircumflex" unicode="&#x15c;" horiz-adv-x="1198" 
d="M147 162q91 -11 198 -19t237 -8q77 0 135.5 14t97.5 44t58.5 77.5t19.5 114.5q0 45 -9.5 81.5t-33 68t-63.5 59t-101 55.5l-260 117q-76 34 -134.5 73t-98 88t-60 110.5t-20.5 140.5q0 188 122.5 278t374.5 90q69 0 135.5 -4.5t122.5 -10.5t98.5 -13t63.5 -13v-149
q-35 4 -83 8.5t-103 8.5t-114 6.5t-114 2.5q-75 0 -133.5 -10t-98 -33.5t-60.5 -62.5t-21 -98q0 -44 9 -79t32.5 -65t63 -56.5t100.5 -53.5l262 -115q80 -35 139 -76t98 -91.5t58.5 -113.5t19.5 -143q0 -198 -125.5 -306t-377.5 -108q-69 0 -138 4.5t-128 11.5t-103.5 14.5
t-65.5 12.5v148zM793 1616l-215 215l-213 -215h-184l276 315h244l276 -315h-184z" />
    <glyph glyph-name="scircumflex" unicode="&#x15d;" horiz-adv-x="987" 
d="M117 158q25 -2 66 -7t89.5 -10t102 -8.5t104.5 -3.5q72 0 119 10t74.5 29t38 47.5t10.5 65.5t-8.5 63.5t-33 49.5t-69 46t-116.5 54l-82 34q-81 35 -140 70.5t-96.5 77t-55.5 90t-18 108.5q0 142 98 211.5t310 69.5q57 0 111.5 -4.5t100 -11t79.5 -13.5t49 -12v-137
q-45 4 -91.5 8t-90 6.5t-82.5 4t-68 1.5q-62 0 -105.5 -4.5t-71.5 -18t-41 -37.5t-13 -63q0 -33 8.5 -57.5t30 -46t59.5 -43t98 -47.5l82 -35q98 -44 163.5 -81t104.5 -77.5t55.5 -88.5t16.5 -113q0 -61 -18.5 -117.5t-66 -100t-129 -70t-206.5 -26.5q-59 0 -118.5 5.5
t-110.5 12.5t-88 14.5t-51 12.5v142zM702 1262l-215 215l-213 -215h-184l276 315h244l276 -315h-184z" />
    <glyph glyph-name="Scedilla" unicode="&#x15e;" horiz-adv-x="1198" 
d="M147 162q91 -11 198 -19t237 -8q77 0 135.5 14t97.5 44t58.5 77.5t19.5 114.5q0 45 -9.5 81.5t-33 68t-63.5 59t-101 55.5l-260 117q-76 34 -134.5 73t-98 88t-60 110.5t-20.5 140.5q0 188 122.5 278t374.5 90q69 0 135.5 -4.5t122.5 -10.5t98.5 -13t63.5 -13v-149
q-35 4 -83 8.5t-103 8.5t-114 6.5t-114 2.5q-75 0 -133.5 -10t-98 -33.5t-60.5 -62.5t-21 -98q0 -44 9 -79t32.5 -65t63 -56.5t100.5 -53.5l262 -115q80 -35 139 -76t98 -91.5t58.5 -113.5t19.5 -143q0 -198 -125.5 -306t-377.5 -108q-69 0 -138 4.5t-128 11.5t-103.5 14.5
t-65.5 12.5v148zM291 -430l237 291h229l-278 -291h-188z" />
    <glyph glyph-name="scedilla" unicode="&#x15f;" horiz-adv-x="987" 
d="M117 158q25 -2 66 -7t89.5 -10t102 -8.5t104.5 -3.5q72 0 119 10t74.5 29t38 47.5t10.5 65.5t-8.5 63.5t-33 49.5t-69 46t-116.5 54l-82 34q-81 35 -140 70.5t-96.5 77t-55.5 90t-18 108.5q0 142 98 211.5t310 69.5q57 0 111.5 -4.5t100 -11t79.5 -13.5t49 -12v-137
q-45 4 -91.5 8t-90 6.5t-82.5 4t-68 1.5q-62 0 -105.5 -4.5t-71.5 -18t-41 -37.5t-13 -63q0 -33 8.5 -57.5t30 -46t59.5 -43t98 -47.5l82 -35q98 -44 163.5 -81t104.5 -77.5t55.5 -88.5t16.5 -113q0 -61 -18.5 -117.5t-66 -100t-129 -70t-206.5 -26.5q-59 0 -118.5 5.5
t-110.5 12.5t-88 14.5t-51 12.5v142zM199 -430l237 291h229l-278 -291h-188z" />
    <glyph glyph-name="Scaron" unicode="&#x160;" horiz-adv-x="1198" 
d="M147 162q91 -11 198 -19t237 -8q77 0 135.5 14t97.5 44t58.5 77.5t19.5 114.5q0 45 -9.5 81.5t-33 68t-63.5 59t-101 55.5l-260 117q-76 34 -134.5 73t-98 88t-60 110.5t-20.5 140.5q0 188 122.5 278t374.5 90q69 0 135.5 -4.5t122.5 -10.5t98.5 -13t63.5 -13v-149
q-35 4 -83 8.5t-103 8.5t-114 6.5t-114 2.5q-75 0 -133.5 -10t-98 -33.5t-60.5 -62.5t-21 -98q0 -44 9 -79t32.5 -65t63 -56.5t100.5 -53.5l262 -115q80 -35 139 -76t98 -91.5t58.5 -113.5t19.5 -143q0 -198 -125.5 -306t-377.5 -108q-69 0 -138 4.5t-128 11.5t-103.5 14.5
t-65.5 12.5v148zM477 1614l-276 315h184l213 -217l215 217h184l-276 -315h-244z" />
    <glyph glyph-name="scaron" unicode="&#x161;" horiz-adv-x="987" 
d="M117 158q25 -2 66 -7t89.5 -10t102 -8.5t104.5 -3.5q72 0 119 10t74.5 29t38 47.5t10.5 65.5t-8.5 63.5t-33 49.5t-69 46t-116.5 54l-82 34q-81 35 -140 70.5t-96.5 77t-55.5 90t-18 108.5q0 142 98 211.5t310 69.5q57 0 111.5 -4.5t100 -11t79.5 -13.5t49 -12v-137
q-45 4 -91.5 8t-90 6.5t-82.5 4t-68 1.5q-62 0 -105.5 -4.5t-71.5 -18t-41 -37.5t-13 -63q0 -33 8.5 -57.5t30 -46t59.5 -43t98 -47.5l82 -35q98 -44 163.5 -81t104.5 -77.5t55.5 -88.5t16.5 -113q0 -61 -18.5 -117.5t-66 -100t-129 -70t-206.5 -26.5q-59 0 -118.5 5.5
t-110.5 12.5t-88 14.5t-51 12.5v142zM381 1262l-276 315h184l213 -217l215 217h184l-276 -315h-244z" />
    <glyph glyph-name="Tcedilla" unicode="&#x162;" horiz-adv-x="1249" 
d="M530 0v1354h-469v168h1127v-168h-469v-1354h-189zM390 -430l137 291h213l-182 -291h-168z" />
    <glyph glyph-name="tcedilla" unicode="&#x163;" horiz-adv-x="825" 
d="M764 2q-12 -4 -33.5 -9t-49.5 -10t-60 -8.5t-64 -3.5q-77 0 -130 15t-86 48.5t-47.5 88.5t-14.5 135v715l-228 16v137h228v293h184v-293h301v-153h-301v-707q0 -48 3 -76.5t15 -44.5t35 -21t62 -5q24 0 51 1t52.5 2.5t47.5 3t35 3.5v-127zM272 -430l137 291h213
l-182 -291h-168z" />
    <glyph glyph-name="Tcaron" unicode="&#x164;" horiz-adv-x="1249" 
d="M530 0v1354h-469v168h1127v-168h-469v-1354h-189zM502 1614l-276 315h184l213 -217l215 217h184l-276 -315h-244z" />
    <glyph glyph-name="tcaron" unicode="&#x165;" horiz-adv-x="825" 
d="M764 2q-12 -4 -33.5 -9t-49.5 -10t-60 -8.5t-64 -3.5q-77 0 -130 15t-86 48.5t-47.5 88.5t-14.5 135v715l-228 16v137h228v293h184v-293h301v-153h-301v-707q0 -48 3 -76.5t15 -44.5t35 -21t62 -5q24 0 51 1t52.5 2.5t47.5 3t35 3.5v-127zM578 1255l71 330h195l-125 -330
h-141z" />
    <glyph glyph-name="Tbar" unicode="&#x166;" horiz-adv-x="1249" 
d="M530 0v786h-417v166h417v402h-469v168h1127v-168h-469v-402h420v-166h-420v-786h-189z" />
    <glyph glyph-name="tbar" unicode="&#x167;" horiz-adv-x="825" 
d="M762 2q-11 -4 -32.5 -9t-49 -9.5t-60 -7.5t-65.5 -3q-76 0 -128.5 14.5t-85.5 48t-47.5 88t-14.5 134.5v399l-228 21v133h228v162l-228 16v137h228v293h182v-293h301v-153h-301v-162h301v-154h-301v-391q0 -48 3.5 -76.5t15.5 -43.5t35.5 -20t62.5 -5q46 0 95 2.5t89 5.5
v-127z" />
    <glyph glyph-name="Utilde" unicode="&#x168;" horiz-adv-x="1432" 
d="M1081 1522h187v-889q0 -330 -139 -496t-412 -166q-553 0 -553 662v889h188v-869q0 -138 18 -235.5t60 -159t112 -89.5t175 -28q103 0 173 28.5t112.5 90t60.5 159t18 234.5v869zM1129 1855q0 -57 -9.5 -104t-33 -80.5t-61.5 -51.5t-95 -18t-106.5 21t-102.5 63l-84 68
q-34 29 -59.5 43t-57.5 14q-43 0 -57 -32.5t-14 -92.5v-69h-133v69q0 58 11 105t35.5 80t63.5 51t94 18q29 0 54 -4.5t48.5 -13.5t47 -24t49.5 -36l86 -69q32 -26 60.5 -43t60.5 -17q44 0 58 31.5t14 91.5v70h131v-70z" />
    <glyph glyph-name="utilde" unicode="&#x169;" horiz-adv-x="1221" 
d="M879 0v88q-113 -57 -209 -87t-183 -30q-104 0 -169 34t-101.5 93t-49.5 138.5t-13 171.5v718h182v-718q0 -77 7.5 -130t28.5 -86t58 -48t96 -15q66 0 153 25.5t200 74.5v897h184v-1126h-184zM1020 1507q0 -57 -9.5 -104t-33 -80.5t-61.5 -51.5t-95 -18t-106.5 21
t-102.5 63l-84 68q-34 29 -59.5 43t-57.5 14q-43 0 -57 -32.5t-14 -92.5v-69h-133v69q0 58 11 105t35.5 80t63.5 51t94 18q29 0 54 -4.5t48.5 -13.5t47 -24t49.5 -36l86 -69q32 -26 60.5 -43t60.5 -17q44 0 58 31.5t14 91.5v70h131v-70z" />
    <glyph glyph-name="Umacron" unicode="&#x16a;" horiz-adv-x="1432" 
d="M1081 1522h187v-889q0 -330 -139 -496t-412 -166q-553 0 -553 662v889h188v-869q0 -138 18 -235.5t60 -159t112 -89.5t175 -28q103 0 173 28.5t112.5 90t60.5 159t18 234.5v869zM365 1687v144h702v-144h-702z" />
    <glyph glyph-name="umacron" unicode="&#x16b;" horiz-adv-x="1221" 
d="M879 0v88q-113 -57 -209 -87t-183 -30q-104 0 -169 34t-101.5 93t-49.5 138.5t-13 171.5v718h182v-718q0 -77 7.5 -130t28.5 -86t58 -48t96 -15q66 0 153 25.5t200 74.5v897h184v-1126h-184zM262 1341v144h702v-144h-702z" />
    <glyph glyph-name="Ubreve" unicode="&#x16c;" horiz-adv-x="1432" 
d="M1081 1522h187v-889q0 -330 -139 -496t-412 -166q-553 0 -553 662v889h188v-869q0 -138 18 -235.5t60 -159t112 -89.5t175 -28q103 0 173 28.5t112.5 90t60.5 159t18 234.5v869zM1061 1913q-5 -66 -25 -124t-60.5 -100.5t-104 -67.5t-156.5 -25t-156.5 25t-104 67.5
t-60 100.5t-23.5 124h137q5 -54 20.5 -91.5t41 -60.5t61.5 -33t84 -10t84.5 10t62 33t41 60.5t21.5 91.5h137z" />
    <glyph glyph-name="ubreve" unicode="&#x16d;" horiz-adv-x="1221" 
d="M879 0v88q-113 -57 -209 -87t-183 -30q-104 0 -169 34t-101.5 93t-49.5 138.5t-13 171.5v718h182v-718q0 -77 7.5 -130t28.5 -86t58 -48t96 -15q66 0 153 25.5t200 74.5v897h184v-1126h-184zM958 1577q-5 -66 -25 -124t-60.5 -100.5t-104 -67.5t-156.5 -25t-156.5 25
t-104 67.5t-60 100.5t-23.5 124h137q5 -54 20.5 -91.5t41 -60.5t61.5 -33t84 -10t84.5 10t62 33t41 60.5t21.5 91.5h137z" />
    <glyph glyph-name="Uring" unicode="&#x16e;" horiz-adv-x="1432" 
d="M1081 1522h187v-889q0 -330 -139 -496t-412 -166q-553 0 -553 662v889h188v-869q0 -138 18 -235.5t60 -159t112 -89.5t175 -28q103 0 173 28.5t112.5 90t60.5 159t18 234.5v869zM719 1577q-51 0 -95 13t-76.5 40t-51.5 69t-19 101t19 101.5t51.5 69.5t76.5 40t95 13
q50 0 93 -13t75 -40t50 -69.5t18 -101.5t-18 -101t-50 -69t-75 -40t-93 -13zM719 1913q-24 0 -45 -5.5t-36.5 -18.5t-24.5 -35t-9 -54t9 -53t24.5 -34.5t36.5 -19t45 -5.5q23 0 43.5 5.5t36 19t24.5 34.5t9 53t-9 54t-24.5 35t-36 18.5t-43.5 5.5z" />
    <glyph glyph-name="uring" unicode="&#x16f;" horiz-adv-x="1221" 
d="M879 0v88q-113 -57 -209 -87t-183 -30q-104 0 -169 34t-101.5 93t-49.5 138.5t-13 171.5v718h182v-718q0 -77 7.5 -130t28.5 -86t58 -48t96 -15q66 0 153 25.5t200 74.5v897h184v-1126h-184zM621 1241q-51 0 -95 13t-76.5 40t-51.5 69t-19 101t19 101.5t51.5 69.5
t76.5 40t95 13q50 0 93 -13t75 -40t50 -69.5t18 -101.5t-18 -101t-50 -69t-75 -40t-93 -13zM621 1577q-24 0 -45 -5.5t-36.5 -18.5t-24.5 -35t-9 -54t9 -53t24.5 -34.5t36.5 -19t45 -5.5q23 0 43.5 5.5t36 19t24.5 34.5t9 53t-9 54t-24.5 35t-36 18.5t-43.5 5.5z" />
    <glyph glyph-name="Uhungarumlaut" unicode="&#x170;" horiz-adv-x="1432" 
d="M1081 1522h187v-889q0 -330 -139 -496t-412 -166q-553 0 -553 662v889h188v-869q0 -138 18 -235.5t60 -159t112 -89.5t175 -28q103 0 173 28.5t112.5 90t60.5 159t18 234.5v869zM821 1615l270 316h223l-307 -316h-186zM387 1615l268 316h225l-307 -316h-186z" />
    <glyph glyph-name="uhungarumlaut" unicode="&#x171;" horiz-adv-x="1221" 
d="M879 0v88q-113 -57 -209 -87t-183 -30q-104 0 -169 34t-101.5 93t-49.5 138.5t-13 171.5v718h182v-718q0 -77 7.5 -130t28.5 -86t58 -48t96 -15q66 0 153 25.5t200 74.5v897h184v-1126h-184zM727 1261l270 316h223l-307 -316h-186zM293 1261l268 316h225l-307 -316h-186z
" />
    <glyph glyph-name="Uogonek" unicode="&#x172;" horiz-adv-x="1432" 
d="M1001 -422q-30 -9 -77 -15.5t-101 -6.5q-125 0 -191.5 49.5t-66.5 146.5q0 60 32.5 111.5t104.5 107.5q-538 9 -538 662v889h188v-869q0 -138 18 -235.5t60 -159t112 -89.5t175 -28q103 0 173 28.5t112.5 90t60.5 159t18 234.5v869h187v-889q0 -230 -65 -377.5
t-202 -222.5q-97 -54 -152.5 -94.5t-84 -72.5t-36 -57t-7.5 -47q0 -21 6 -37.5t20 -28t38 -18t59 -6.5q51 0 90.5 2.5t66.5 6.5v-103z" />
    <glyph glyph-name="uogonek" unicode="&#x173;" horiz-adv-x="1221" 
d="M1063 -424q-17 -6 -63 -13t-111 -7q-130 0 -195 54t-65 148q0 72 67 141t183 121v68q-113 -57 -209 -87t-183 -30q-104 0 -169 34t-101.5 93t-49.5 138.5t-13 171.5v718h182v-718q0 -77 7.5 -130t28.5 -86t58 -48t96 -15q66 0 153 25.5t200 74.5v897h184v-1126
q-92 -42 -147.5 -76t-84.5 -62t-38 -51t-9 -44t5.5 -38.5t19.5 -30t37.5 -19.5t58.5 -7q38 0 77 3.5t81 7.5v-107z" />
    <glyph glyph-name="Wcircumflex" unicode="&#x174;" horiz-adv-x="1843" 
d="M1176 0l-207 942q-11 50 -21.5 97.5t-21.5 97.5h-6q-11 -50 -21.5 -97.5t-21.5 -97.5l-205 -942h-305l-275 1522h201l178 -1069q12 -76 24.5 -152t24.5 -151h10q17 75 33 150t33 151l182 845h295l184 -852q16 -74 32 -147t32 -147h10q11 78 22 149.5t25 153.5l181 1069
h192l-274 -1522h-301zM1139 1616l-215 215l-213 -215h-184l276 315h244l276 -315h-184z" />
    <glyph glyph-name="wcircumflex" unicode="&#x175;" horiz-adv-x="1702" 
d="M1126 0l-208 676q-25 80 -39.5 135t-22.5 92h-8q-8 -37 -22.5 -92t-39.5 -135l-208 -676h-261l-256 1126h189l149 -696q16 -74 28 -147t17 -144h11q21 76 39 149.5t38 139.5l187 606h266l186 -606q20 -66 38.5 -139.5t39.5 -149.5h11q5 71 17 144t28 147l149 696h186
l-254 -1126h-260zM1065 1262l-215 215l-213 -215h-184l276 315h244l276 -315h-184z" />
    <glyph glyph-name="Ycircumflex" unicode="&#x176;" horiz-adv-x="1284" 
d="M549 0v602l-508 920h207l276 -502q29 -54 61.5 -118t55.5 -124h12q11 29 26 60.5t31.5 63t33.5 61.5t32 57l275 502h192l-508 -920v-602h-186zM862 1616l-215 215l-213 -215h-184l276 315h244l276 -315h-184z" />
    <glyph glyph-name="ycircumflex" unicode="&#x177;" horiz-adv-x="1120" 
d="M791 1262l-215 215l-213 -215h-184l276 315h244l276 -315h-184zM494 0l-437 1126h203l229 -632q13 -38 24.5 -72.5t22.5 -70t22.5 -73.5t25.5 -83q10 45 20 83t20.5 73t21.5 70.5t24 74.5l207 630h196l-428 -1226q-29 -81 -59 -147t-72 -112.5t-101.5 -72t-146.5 -25.5
q-72 0 -131 7.5t-88 13.5v141q33 -2 60 -3.5t51.5 -2.5t49 -1.5t52.5 -0.5q42 0 70 11.5t50 37.5t41 68t42 104z" />
    <glyph glyph-name="Ydieresis" unicode="&#x178;" horiz-adv-x="1284" 
d="M549 0v602l-508 920h207l276 -502q29 -54 61.5 -118t55.5 -124h12q11 29 26 60.5t31.5 63t33.5 61.5t32 57l275 502h192l-508 -920v-602h-186zM799 1657v242h165v-242h-165zM330 1657v242h167v-242h-167z" />
    <glyph glyph-name="Zacute" unicode="&#x179;" horiz-adv-x="1278" 
d="M113 0v209l821 1145h-791v168h994v-207l-820 -1149h848v-166h-1052zM545 1616l269 315h223l-307 -315h-185z" />
    <glyph glyph-name="zacute" unicode="&#x17a;" horiz-adv-x="999" 
d="M82 0v207l627 766h-600v153h796v-190l-637 -784h639v-152h-825zM415 1262l269 315h223l-307 -315h-185z" />
    <glyph glyph-name="Zdotaccent" unicode="&#x17b;" horiz-adv-x="1278" 
d="M113 0v209l821 1145h-791v168h994v-207l-820 -1149h848v-166h-1052zM547 1657v246h182v-246h-182z" />
    <glyph glyph-name="zdotaccent" unicode="&#x17c;" horiz-adv-x="999" 
d="M82 0v207l627 766h-600v153h796v-190l-637 -784h639v-152h-825zM430 1333v246h182v-246h-182z" />
    <glyph glyph-name="Zcaron" unicode="&#x17d;" horiz-adv-x="1278" 
d="M113 0v209l821 1145h-791v168h994v-207l-820 -1149h848v-166h-1052zM543 1616l-276 315h184l213 -217l215 217h184l-276 -315h-244z" />
    <glyph glyph-name="zcaron" unicode="&#x17e;" horiz-adv-x="999" 
d="M82 0v207l627 766h-600v153h796v-190l-637 -784h639v-152h-825zM409 1262l-276 315h184l213 -217l215 217h184l-276 -315h-244z" />
    <glyph glyph-name="florin" unicode="&#x192;" horiz-adv-x="1307" 
d="M575 725h-319l23 154h321l49 348q14 95 43 157t72 98t100 50t127 14q53 0 103 -6.5t92 -17.5l-17 -129q-46 5 -82 7.5t-71 2.5q-40 0 -71 -6t-53.5 -26t-37 -57.5t-23.5 -99.5l-47 -335h355l-23 -154h-358l-96 -690q-13 -95 -43 -156.5t-73 -97.5t-98 -50t-118 -14
q-62 0 -113 7t-94 18l18 129q42 -5 80.5 -7.5t81.5 -2.5q34 0 62 5t50.5 24t38.5 56t25 101z" />
    <glyph glyph-name="Aringacute" unicode="&#x1fa;" horiz-adv-x="1358" 
d="M1106 0l-158 498h-545l-161 -498h-191l498 1522h260l498 -1522h-201zM748 1114q-20 62 -35 122t-27 128h-20q-14 -68 -28 -128t-34 -122l-145 -444h432zM682 1544q-51 0 -95 13t-76.5 40t-51.5 69t-19 101t19 101.5t51.5 69.5t76.5 40t95 13q50 0 93 -13t75 -40t50 -69.5
t18 -101.5t-18 -101t-50 -69t-75 -40t-93 -13zM682 1880q-50 0 -82.5 -24.5t-32.5 -88.5q0 -32 8.5 -53t24 -34.5t36.5 -19t46 -5.5q23 0 43.5 5.5t36 19t24.5 34.5t9 53t-9 54t-24.5 35t-36 18.5t-43.5 5.5zM573 2017l269 316h223l-307 -316h-185z" />
    <glyph glyph-name="aringacute" unicode="&#x1fb;" horiz-adv-x="1116" 
d="M797 0v76q-26 -18 -61.5 -36.5t-80.5 -33.5t-99.5 -25t-117.5 -10q-79 0 -141.5 18.5t-105.5 57.5t-66 99.5t-23 144.5v41q0 111 36.5 179.5t104.5 106t163.5 50t214.5 12.5h167v82q0 73 -9.5 119t-38 72t-80 36t-136.5 10q-47 0 -90 -2t-85 -5t-84.5 -7.5t-88.5 -9.5
v131q12 4 46 12.5t82.5 16.5t109 14t125.5 6q140 0 225.5 -25.5t132 -75t61.5 -123t15 -169.5v-762h-176zM788 541h-167q-89 0 -152.5 -7.5t-104 -29.5t-59 -63.5t-18.5 -108.5v-56q0 -47 14 -78t39 -49.5t59.5 -26t75.5 -7.5q50 0 98.5 9.5t90.5 23.5t74 29.5t50 27.5v336z
M588 1204q-51 0 -95 13t-76.5 40t-51.5 69t-19 101t19 101.5t51.5 69.5t76.5 40t95 13q50 0 93 -13t74.5 -40t49.5 -69.5t18 -101.5t-18 -101t-49.5 -69t-74.5 -40t-93 -13zM588 1540q-50 0 -82.5 -24.5t-32.5 -88.5q0 -32 8.5 -53t24 -34.5t36.5 -19t46 -5.5q23 0 43.5 5.5
t35.5 19t24 34.5t9 53t-9 54t-24 35t-35.5 18.5t-43.5 5.5zM487 1688l269 315h223l-307 -315h-185z" />
    <glyph glyph-name="AEacute" unicode="&#x1fc;" horiz-adv-x="1974" 
d="M963 0v498h-541l-158 -498h-192l491 1522h1299v-168h-713v-480h672v-169h-672v-539h713v-166h-899zM963 1356h-271q-17 -57 -33 -114t-34 -116l-148 -460h486v690zM1057 1616l269 315h223l-307 -315h-185z" />
    <glyph glyph-name="aeacute" unicode="&#x1fd;" horiz-adv-x="1862" 
d="M1708 16q-30 -8 -72 -15.5t-93.5 -14.5t-110.5 -11t-123 -4q-160 0 -261.5 36t-158.5 104q-52 -36 -103.5 -62t-106.5 -43.5t-114.5 -26t-126.5 -8.5q-79 0 -141.5 18.5t-105.5 57.5t-66 99.5t-23 144.5v41q0 111 36.5 179.5t104.5 106t163.5 50t214.5 12.5h167v82
q0 73 -9.5 119t-38 72t-80 36t-136.5 10q-47 0 -90 -2t-85 -5t-84.5 -7.5t-88.5 -9.5v131q12 4 46 12.5t82.5 16.5t109 14t125.5 6q89 0 151.5 -8.5t105.5 -25t71 -40t48 -53.5q28 29 63 52.5t78 39.5t95.5 24.5t116.5 8.5q123 0 214 -37.5t150 -109t88 -175.5t29 -237v-98
h-774v-23q0 -48 3 -92.5t14.5 -82.5t33 -70t59 -54t93.5 -34.5t135 -12.5q114 0 210.5 10.5t184.5 26.5v-148zM1561 668q0 34 -3.5 71.5t-14 74t-30.5 69.5t-52.5 58t-80 39.5t-112.5 14.5q-64 0 -111 -14.5t-79 -39.5t-52 -58t-31 -69.5t-14.5 -74t-3.5 -71.5v-21h584v21z
M788 541h-167q-89 0 -152.5 -7.5t-104 -29.5t-59 -63.5t-18.5 -108.5v-56q0 -47 14 -78t39 -49.5t59.5 -26t75.5 -7.5q50 0 98.5 9.5t90.5 23.5t74 29.5t50 27.5v336zM837 1262l269 315h223l-307 -315h-185z" />
    <glyph glyph-name="Oslashacute" unicode="&#x1fe;" horiz-adv-x="1401" 
d="M1288 651q0 -163 -38.5 -289.5t-113.5 -213.5t-184.5 -132t-251.5 -45q-234 0 -381 121l-65 -92h-195l156 217q-102 166 -102 434v217q0 163 38.5 289.5t113 212.5t184 131t251.5 45q118 0 212.5 -31t166.5 -90l68 95h194l-155 -217q51 -84 76.5 -192t25.5 -243v-217z
M973 1276q-53 54 -122 78t-151 24q-87 0 -160 -27t-125.5 -88t-82 -158t-29.5 -237v-217q0 -156 37 -260zM1098 868q0 79 -9.5 143.5t-27.5 116.5l-635 -886q53 -54 122 -78.5t152 -24.5q88 0 161 27.5t125.5 89t82 158.5t29.5 237v217zM534 1616l269 315h223l-307 -315
h-185z" />
    <glyph glyph-name="oslashacute" unicode="&#x1ff;" horiz-adv-x="1186" 
d="M1073 481q0 -123 -30.5 -218t-91 -160t-150.5 -98.5t-209 -33.5q-88 0 -158.5 18t-126.5 52l-69 -90h-191l150 196q-84 126 -84 334v164q0 246 120 378t359 132q96 0 172 -22t135 -64l82 107h190l-170 -222q72 -123 72 -309v-164zM889 645q0 40 -4 75t-11 66l-464 -608
q35 -23 80 -34t102 -11q154 0 225.5 83t71.5 265v164zM795 932q-70 61 -203 61q-77 0 -132.5 -20t-91.5 -62.5t-53.5 -108.5t-17.5 -157v-164q0 -52 4.5 -95.5t15.5 -78.5zM469 1262l269 315h223l-307 -315h-185z" />
    <glyph glyph-name="Scommaaccent" unicode="&#x218;" horiz-adv-x="1198" 
d="M147 162q91 -11 198 -19t237 -8q77 0 135.5 14t97.5 44t58.5 77.5t19.5 114.5q0 45 -9.5 81.5t-33 68t-63.5 59t-101 55.5l-260 117q-76 34 -134.5 73t-98 88t-60 110.5t-20.5 140.5q0 188 122.5 278t374.5 90q69 0 135.5 -4.5t122.5 -10.5t98.5 -13t63.5 -13v-149
q-35 4 -83 8.5t-103 8.5t-114 6.5t-114 2.5q-75 0 -133.5 -10t-98 -33.5t-60.5 -62.5t-21 -98q0 -44 9 -79t32.5 -65t63 -56.5t100.5 -53.5l262 -115q80 -35 139 -76t98 -91.5t58.5 -113.5t19.5 -143q0 -198 -125.5 -306t-377.5 -108q-69 0 -138 4.5t-128 11.5t-103.5 14.5
t-65.5 12.5v148zM375 -430l137 291h213l-182 -291h-168z" />
    <glyph glyph-name="scommaaccent" unicode="&#x219;" horiz-adv-x="987" 
d="M117 158q25 -2 66 -7t89.5 -10t102 -8.5t104.5 -3.5q72 0 119 10t74.5 29t38 47.5t10.5 65.5t-8.5 63.5t-33 49.5t-69 46t-116.5 54l-82 34q-81 35 -140 70.5t-96.5 77t-55.5 90t-18 108.5q0 142 98 211.5t310 69.5q57 0 111.5 -4.5t100 -11t79.5 -13.5t49 -12v-137
q-45 4 -91.5 8t-90 6.5t-82.5 4t-68 1.5q-62 0 -105.5 -4.5t-71.5 -18t-41 -37.5t-13 -63q0 -33 8.5 -57.5t30 -46t59.5 -43t98 -47.5l82 -35q98 -44 163.5 -81t104.5 -77.5t55.5 -88.5t16.5 -113q0 -61 -18.5 -117.5t-66 -100t-129 -70t-206.5 -26.5q-59 0 -118.5 5.5
t-110.5 12.5t-88 14.5t-51 12.5v142zM262 -430l137 291h213l-182 -291h-168z" />
    <glyph glyph-name="Tcommaaccent" unicode="&#x21a;" horiz-adv-x="1249" 
d="M530 0v1354h-469v168h1127v-168h-469v-1354h-189zM390 -430l137 291h213l-182 -291h-168z" />
    <glyph glyph-name="tcommaaccent" unicode="&#x21b;" horiz-adv-x="825" 
d="M764 2q-12 -4 -33.5 -9t-49.5 -10t-60 -8.5t-64 -3.5q-77 0 -130 15t-86 48.5t-47.5 88.5t-14.5 135v715l-228 16v137h228v293h184v-293h301v-153h-301v-707q0 -48 3 -76.5t15 -44.5t35 -21t62 -5q24 0 51 1t52.5 2.5t47.5 3t35 3.5v-127zM272 -430l137 291h213
l-182 -291h-168z" />
    <glyph glyph-name="circumflex" unicode="&#x2c6;" 
d="M682 1262l-215 215l-213 -215h-184l276 315h244l276 -315h-184z" />
    <glyph glyph-name="caron" unicode="&#x2c7;" 
d="M346 1262l-276 315h184l213 -217l215 217h184l-276 -315h-244z" />
    <glyph glyph-name="uni02C9" unicode="&#x2c9;" 
d="M117 1341v144h702v-144h-702z" />
    <glyph glyph-name="breve" unicode="&#x2d8;" 
d="M813 1577q-5 -66 -25 -124t-60.5 -100.5t-104 -67.5t-156.5 -25t-156.5 25t-104 67.5t-60 100.5t-23.5 124h137q5 -54 20.5 -91.5t41 -60.5t61.5 -33t84 -10t84.5 10t62 33t41 60.5t21.5 91.5h137z" />
    <glyph glyph-name="dotaccent" unicode="&#x2d9;" 
d="M377 1333v246h182v-246h-182z" />
    <glyph glyph-name="ring" unicode="&#x2da;" 
d="M471 1241q-51 0 -95 13t-76.5 40t-51.5 69t-19 101t19 101.5t51.5 69.5t76.5 40t95 13q50 0 93 -13t75 -40t50 -69.5t18 -101.5t-18 -101t-50 -69t-75 -40t-93 -13zM471 1577q-24 0 -45 -5.5t-36.5 -18.5t-24.5 -35t-9 -54t9 -53t24.5 -34.5t36.5 -19t45 -5.5
q23 0 43.5 5.5t36 19t24.5 34.5t9 53t-9 54t-24.5 35t-36 18.5t-43.5 5.5z" />
    <glyph glyph-name="ogonek" unicode="&#x2db;" 
d="M713 -424q-17 -6 -63 -13t-111 -7q-130 0 -195 54t-65 148q0 73 65 144.5t186 124.5l183 -27q-92 -42 -147.5 -76t-84.5 -62t-38 -51t-9 -44t5.5 -38.5t19.5 -30t37.5 -19.5t58.5 -7q38 0 77 3.5t81 7.5v-107z" />
    <glyph glyph-name="tilde" unicode="&#x2dc;" 
d="M881 1507q0 -57 -9.5 -104t-33 -80.5t-61.5 -51.5t-95 -18t-106.5 21t-102.5 63l-84 68q-34 29 -59.5 43t-57.5 14q-43 0 -57 -32.5t-14 -92.5v-69h-133v69q0 58 11 105t35.5 80t63.5 51t94 18q29 0 54 -4.5t48.5 -13.5t47 -24t49.5 -36l86 -69q32 -26 60.5 -43t60.5 -17
q44 0 58 31.5t14 91.5v70h131v-70z" />
    <glyph glyph-name="hungarumlaut" unicode="&#x2dd;" 
d="M508 1255l270 316h223l-307 -316h-186zM74 1255l268 316h225l-307 -316h-186z" />
    <glyph glyph-name="uni037E" unicode="&#x37e;" horiz-adv-x="492" 
d="M158 510v283h184v-283h-184z" />
    <glyph glyph-name="uni03A9" unicode="&#x3a9;" horiz-adv-x="1395" 
d="M772 0v330q159 40 239.5 158t80.5 298v150q0 131 -32 216.5t-86.5 135.5t-126.5 70t-151 20t-150.5 -20t-126 -70t-86.5 -135.5t-32 -216.5v-150q0 -180 80.5 -298t239.5 -158v-330h-498v156h323v84q-91 36 -155 92.5t-104 127.5t-58 154t-18 172v150q0 150 42 264.5
t118.5 191t184.5 115.5t240 39q133 0 241.5 -39t185 -115.5t118 -191t41.5 -264.5v-150q0 -89 -18 -172t-58.5 -154t-104.5 -127.5t-155 -92.5v-84h326v-156h-500z" />
    <glyph glyph-name="uni03BC" unicode="&#x3bc;" horiz-adv-x="1321" 
d="M930 0v88q-113 -57 -209 -87t-182 -30q-45 0 -82 6.5t-68 18.5v-426h-184v1556h182v-718q0 -77 7.5 -130t28.5 -86t58.5 -48t96.5 -15q66 0 152.5 25.5t199.5 74.5v897h184v-1126h-184z" />
    <glyph glyph-name="pi" unicode="&#x3c0;" horiz-adv-x="1294" 
d="M1196 -14q-28 -7 -66.5 -11t-76.5 -4q-67 0 -111 18t-69.5 52.5t-35.5 85.5t-10 117v712h-370v-956h-187v956h-186v170h1112v-170h-186v-712q0 -35 3 -58t12 -37t26 -20t45 -6h50.5t49.5 2v-139z" />
    <glyph glyph-name="Wgrave" unicode="&#x1e80;" horiz-adv-x="1843" 
d="M1176 0l-207 942q-11 50 -21.5 97.5t-21.5 97.5h-6q-11 -50 -21.5 -97.5t-21.5 -97.5l-205 -942h-305l-275 1522h201l178 -1069q12 -76 24.5 -152t24.5 -151h10q17 75 33 150t33 151l182 845h295l184 -852q16 -74 32 -147t32 -147h10q11 78 22 149.5t25 153.5l181 1069
h192l-274 -1522h-301zM916 1616l-307 315h223l268 -315h-184z" />
    <glyph glyph-name="wgrave" unicode="&#x1e81;" horiz-adv-x="1702" 
d="M1126 0l-208 676q-25 80 -39.5 135t-22.5 92h-8q-8 -37 -22.5 -92t-39.5 -135l-208 -676h-261l-256 1126h189l149 -696q16 -74 28 -147t17 -144h11q21 76 39 149.5t38 139.5l187 606h266l186 -606q20 -66 38.5 -139.5t39.5 -149.5h11q5 71 17 144t28 147l149 696h186
l-254 -1126h-260zM803 1262l-307 315h223l268 -315h-184z" />
    <glyph glyph-name="Wacute" unicode="&#x1e82;" horiz-adv-x="1843" 
d="M1176 0l-207 942q-11 50 -21.5 97.5t-21.5 97.5h-6q-11 -50 -21.5 -97.5t-21.5 -97.5l-205 -942h-305l-275 1522h201l178 -1069q12 -76 24.5 -152t24.5 -151h10q17 75 33 150t33 151l182 845h295l184 -852q16 -74 32 -147t32 -147h10q11 78 22 149.5t25 153.5l181 1069
h192l-274 -1522h-301zM805 1616l269 315h223l-307 -315h-185z" />
    <glyph glyph-name="wacute" unicode="&#x1e83;" horiz-adv-x="1702" 
d="M1126 0l-208 676q-25 80 -39.5 135t-22.5 92h-8q-8 -37 -22.5 -92t-39.5 -135l-208 -676h-261l-256 1126h189l149 -696q16 -74 28 -147t17 -144h11q21 76 39 149.5t38 139.5l187 606h266l186 -606q20 -66 38.5 -139.5t39.5 -149.5h11q5 71 17 144t28 147l149 696h186
l-254 -1126h-260zM712 1262l269 315h223l-307 -315h-185z" />
    <glyph glyph-name="Wdieresis" unicode="&#x1e84;" horiz-adv-x="1843" 
d="M1176 0l-207 942q-11 50 -21.5 97.5t-21.5 97.5h-6q-11 -50 -21.5 -97.5t-21.5 -97.5l-205 -942h-305l-275 1522h201l178 -1069q12 -76 24.5 -152t24.5 -151h10q17 75 33 150t33 151l182 845h295l184 -852q16 -74 32 -147t32 -147h10q11 78 22 149.5t25 153.5l181 1069
h192l-274 -1522h-301zM1076 1657v242h165v-242h-165zM607 1657v242h167v-242h-167z" />
    <glyph glyph-name="wdieresis" unicode="&#x1e85;" horiz-adv-x="1702" 
d="M1126 0l-208 676q-25 80 -39.5 135t-22.5 92h-8q-8 -37 -22.5 -92t-39.5 -135l-208 -676h-261l-256 1126h189l149 -696q16 -74 28 -147t17 -144h11q21 76 39 149.5t38 139.5l187 606h266l186 -606q20 -66 38.5 -139.5t39.5 -149.5h11q5 71 17 144t28 147l149 696h186
l-254 -1126h-260zM1002 1317v242h165v-242h-165zM533 1317v242h167v-242h-167z" />
    <glyph glyph-name="Ygrave" unicode="&#x1ef2;" horiz-adv-x="1284" 
d="M549 0v602l-508 920h207l276 -502q29 -54 61.5 -118t55.5 -124h12q11 29 26 60.5t31.5 63t33.5 61.5t32 57l275 502h192l-508 -920v-602h-186zM606 1614l-307 315h223l268 -315h-184z" />
    <glyph glyph-name="ygrave" unicode="&#x1ef3;" horiz-adv-x="1120" 
d="M535 1262l-307 315h223l268 -315h-184zM494 0l-437 1126h203l229 -632q13 -38 24.5 -72.5t22.5 -70t22.5 -73.5t25.5 -83q10 45 20 83t20.5 73t21.5 70.5t24 74.5l207 630h196l-428 -1226q-29 -81 -59 -147t-72 -112.5t-101.5 -72t-146.5 -25.5q-72 0 -131 7.5t-88 13.5
v141q33 -2 60 -3.5t51.5 -2.5t49 -1.5t52.5 -0.5q42 0 70 11.5t50 37.5t41 68t42 104z" />
    <glyph glyph-name="figuredash" unicode="&#x2012;" horiz-adv-x="1466" 
d="M152 522v156h1163v-156h-1163z" />
    <glyph glyph-name="endash" unicode="&#x2013;" horiz-adv-x="1032" 
d="M152 522v156h729v-156h-729z" />
    <glyph glyph-name="emdash" unicode="&#x2014;" horiz-adv-x="1317" 
d="M152 522v156h1013v-156h-1013z" />
    <glyph glyph-name="quoteleft" unicode="&#x2018;" horiz-adv-x="375" 
d="M41 1116l154 469h139l-96 -469h-197z" />
    <glyph glyph-name="quoteright" unicode="&#x2019;" horiz-adv-x="375" 
d="M41 1116l98 469h195l-152 -469h-141z" />
    <glyph glyph-name="quotesinglbase" unicode="&#x201a;" horiz-adv-x="375" 
d="M41 -193l98 467h195l-152 -467h-141z" />
    <glyph glyph-name="quotedblleft" unicode="&#x201c;" horiz-adv-x="750" 
d="M416 1116l151 469h142l-99 -469h-194zM41 1116l152 469h141l-98 -469h-195z" />
    <glyph glyph-name="quotedblright" unicode="&#x201d;" horiz-adv-x="750" 
d="M416 1116l98 469h195l-152 -469h-141zM41 1116l98 469h195l-152 -469h-141z" />
    <glyph glyph-name="quotedblbase" unicode="&#x201e;" horiz-adv-x="750" 
d="M416 -193l98 467h195l-152 -467h-141zM41 -193l98 467h195l-152 -467h-141z" />
    <glyph glyph-name="dagger" unicode="&#x2020;" horiz-adv-x="1044" 
d="M418 -266v1251h-260v162h260v438h182v-438h287v-162h-287v-1251h-182z" />
    <glyph glyph-name="daggerdbl" unicode="&#x2021;" horiz-adv-x="1044" 
d="M418 -266v815h-260v160h260v268h-260v162h260v438h182v-438h287v-162h-287v-268h287v-160h-287v-815h-182z" />
    <glyph glyph-name="bullet" unicode="&#x2022;" horiz-adv-x="1092" 
d="M911 756q0 -75 -28.5 -141.5t-78 -116t-116.5 -78.5t-143 -29q-75 0 -141.5 29t-116 78.5t-78.5 116t-29 141.5q0 76 29 142.5t78.5 116t116 78.5t141.5 29q76 0 143 -29t116.5 -78.5t78 -116t28.5 -142.5z" />
    <glyph glyph-name="onedotenleader" unicode="&#x2024;" horiz-adv-x="506" 
d="M160 0v283h186v-283h-186z" />
    <glyph glyph-name="twodotenleader" unicode="&#x2025;" horiz-adv-x="938" 
d="M592 0v283h184v-283h-184zM160 0v283h186v-283h-186z" />
    <glyph glyph-name="ellipsis" unicode="&#x2026;" horiz-adv-x="1683" 
d="M170 0v283h186v-283h-186zM750 0v283h184v-283h-184zM1327 0v283h184v-283h-184z" />
    <glyph glyph-name="perthousand" unicode="&#x2030;" horiz-adv-x="3037" 
d="M2916 397q0 -207 -93 -312t-267 -105q-175 0 -268 105t-93 312v117q0 207 93 311.5t268 104.5q174 0 267 -104.5t93 -311.5v-117zM2753 514q0 83 -15.5 136.5t-42 85t-62.5 43.5t-77 12q-42 0 -78 -12t-62.5 -43.5t-41.5 -85t-15 -136.5v-117q0 -83 15 -136.5t41.5 -85
t62.5 -44t78 -12.5q41 0 77 12.5t62.5 44t42 85t15.5 136.5v117zM2066 397q0 -207 -93 -312t-267 -105t-267 105t-93 312v117q0 207 93 311.5t267 104.5t267 -104.5t93 -311.5v-117zM1903 514q0 83 -15 136.5t-41.5 85t-62.5 43.5t-78 12t-78 -12t-62.5 -43.5t-41.5 -85
t-15 -136.5v-117q0 -83 15 -136.5t41.5 -85t62.5 -44t78 -12.5t78 12.5t62.5 44t41.5 85t15 136.5v117zM512 0l971 1522h184l-971 -1522h-184zM838 1012q0 -93 -19 -170.5t-61.5 -133t-111 -86t-167.5 -30.5q-100 0 -168.5 32t-111 88.5t-61.5 133.5t-19 166v112
q0 90 19 167t61.5 133t111 88t168.5 32q99 0 167.5 -30.5t111 -86t61.5 -132.5t19 -171v-112zM674 1124q0 79 -12 133t-36 87t-60.5 47t-86.5 14t-87 -15.5t-61 -49.5t-36 -87.5t-12 -128.5v-112q0 -79 12 -133t36 -87t61 -47t87 -14t86.5 14t60.5 47t36 87t12 133v112z" />
    <glyph glyph-name="guilsinglleft" unicode="&#x2039;" horiz-adv-x="782" 
d="M449 166l-334 426l334 422h217l-324 -422l324 -426h-217z" />
    <glyph glyph-name="guilsinglright" unicode="&#x203a;" horiz-adv-x="782" 
d="M115 166l325 426l-325 422h217l336 -422l-336 -426h-217z" />
    <glyph glyph-name="exclamdbl" unicode="&#x203c;" horiz-adv-x="958" 
d="M592 0v276h186v-276h-186zM606 395l-20 1190h198l-18 -1190h-160zM178 0v276h187v-276h-187zM193 395l-21 1190h199l-19 -1190h-159z" />
    <glyph glyph-name="fraction" unicode="&#x2044;" horiz-adv-x="846" 
d="M-154 0l969 1522h184l-968 -1522h-185z" />
    <glyph glyph-name="zero.superior" unicode="&#x2070;" 
d="M834 1077q0 -206 -96.5 -310.5t-272.5 -104.5q-178 0 -272.5 104t-94.5 311v119q0 209 94.5 312.5t272.5 103.5q176 0 272.5 -104t96.5 -312v-119zM666 1196q0 84 -15.5 138t-42.5 86t-64 44.5t-79 12.5t-78.5 -12.5t-63.5 -44.5t-42 -86t-15 -138v-119q0 -83 15 -136.5
t42 -85t63.5 -44t78.5 -12.5t79 12.5t64 44t42.5 85t15.5 136.5v119z" />
    <glyph glyph-name="i.superior" unicode="&#x2071;" horiz-adv-x="434" 
d="M137 621v692h162v-692h-162zM133 1427v158h168v-158h-168z" />
    <glyph glyph-name="four.superior" unicode="&#x2074;" horiz-adv-x="948" 
d="M551 680v225h-461v135l469 553h160v-563h143v-125h-143v-225h-168zM557 1401l-313 -371h313v371z" />
    <glyph glyph-name="five.superior" unicode="&#x2075;" horiz-adv-x="911" 
d="M125 807q65 -8 133 -14.5t139 -6.5q61 0 103.5 9t68.5 30.5t37.5 57t11.5 88.5q0 40 -9.5 67t-34 43.5t-66.5 23.5t-107 7h-262l45 481h570v-129h-432l-23 -227h125q96 0 165 -14t113 -45.5t65 -82.5t21 -124q0 -92 -34 -151.5t-90.5 -94.5t-128.5 -49t-148 -14
q-69 0 -137 9t-125 21v115z" />
    <glyph glyph-name="six.superior" unicode="&#x2076;" horiz-adv-x="963" 
d="M834 961q0 -62 -15.5 -108t-42.5 -79t-62 -54.5t-74 -34.5t-79.5 -18t-77.5 -5q-81 0 -149 15t-116.5 57.5t-75.5 117.5t-27 195v200q0 89 18.5 157.5t62 114.5t116.5 69.5t182 23.5q46 0 91.5 -3.5t84.5 -8.5t69.5 -10t46.5 -9v-117q-25 3 -58 6.5t-69.5 6.5t-76 4.5
t-76.5 1.5q-76 0 -120.5 -15.5t-68 -44t-30 -70t-6.5 -93.5v-31q22 6 49.5 11t56 8t56 5t49.5 2q66 0 127.5 -8t109.5 -35t76.5 -77.5t28.5 -135.5v-38zM666 995q0 48 -13 77.5t-37.5 45t-59 20.5t-77.5 5q-18 0 -40.5 -1t-48.5 -3.5t-54 -7t-55 -11.5v-92
q0 -77 14.5 -124.5t41 -74t64 -36t82.5 -9.5q36 0 69.5 9.5t58.5 30.5t40 54.5t15 82.5v34z" />
    <glyph glyph-name="seven.superior" unicode="&#x2077;" horiz-adv-x="903" 
d="M186 680l443 784h-496v129h660v-149l-424 -764h-183z" />
    <glyph glyph-name="eight.superior" unicode="&#x2078;" horiz-adv-x="987" 
d="M750 1153q51 -31 77.5 -79.5t26.5 -129.5q0 -100 -31.5 -156.5t-84 -84.5t-119.5 -34.5t-138 -6.5q-46 0 -91 2.5t-86 12t-76 28t-60.5 51t-40 81t-14.5 117.5q0 73 26.5 120.5t77.5 78.5q-48 31 -74 79.5t-26 127.5q0 82 31.5 131.5t83 76.5t117.5 35.5t136 8.5
q69 0 134.5 -8.5t116.5 -35.5t82.5 -76.5t31.5 -131.5q0 -79 -26 -127.5t-74 -79.5zM401 1096q-35 0 -58.5 -8.5t-37.5 -27t-20 -47t-6 -67.5q0 -55 15 -87.5t42 -49.5t65 -22t84 -5q45 0 82 5t64 22t42 49.5t15 87.5q-1 39 -7 67.5t-20 47t-37.5 27t-58.5 8.5h-164z
M565 1212q35 0 58 9.5t36.5 28t19 45t5.5 61.5q0 44 -15 70.5t-42 41t-64 19t-82 4.5q-43 0 -79.5 -4.5t-63.5 -19t-42 -41t-15 -70.5q0 -35 5.5 -61.5t19 -45t37 -28t58.5 -9.5h164z" />
    <glyph glyph-name="nine.superior" unicode="&#x2079;" horiz-adv-x="963" 
d="M666 1047q-23 -6 -50.5 -11t-56 -8.5t-56 -5.5t-48.5 -2q-66 0 -127.5 8.5t-109.5 35.5t-76.5 77.5t-28.5 134.5v39q0 61 15.5 107t42.5 79t62 54.5t74 34t79.5 17.5t78.5 5q81 0 148 -15t115.5 -57t75.5 -116.5t27 -194.5v-201q0 -88 -18.5 -156.5t-62 -115t-116 -70.5
t-181.5 -24q-47 0 -93 3.5t-85.5 8.5t-70 10t-46.5 8v115q18 -2 49 -5t69.5 -6t81 -5.5t82.5 -2.5q76 0 121 16t68 45.5t30 71.5t7 93v33zM666 1247q0 77 -14.5 124.5t-41 74t-64 36t-83.5 9.5q-36 0 -69 -9.5t-58 -30.5t-40 -54.5t-15 -81.5v-35q0 -48 13 -77t37 -44.5
t58 -20.5t76 -5q37 0 91 4t110 16v94z" />
    <glyph glyph-name="parenleft.superior" unicode="&#x207d;" horiz-adv-x="578" 
d="M319 526q-28 34 -60 85.5t-59 119.5t-45 151t-18 179v10q0 96 18 179.5t45 152.5t59 121.5t60 87.5h162q-37 -52 -68.5 -110t-55 -124t-37 -142.5t-13.5 -164.5v-10q0 -88 13.5 -163t37 -140.5t55 -122.5t68.5 -109h-162z" />
    <glyph glyph-name="parenright.superior" unicode="&#x207e;" horiz-adv-x="578" 
d="M96 526q38 52 70 109t55 122.5t36 140.5t13 163v10q0 88 -13 164.5t-36 142.5t-55 124t-70 110h162q28 -35 60 -87.5t59 -121.5t45 -152.5t18 -179.5v-10q0 -96 -18 -179t-45 -151t-59 -119.5t-60 -85.5h-162z" />
    <glyph glyph-name="n.superior" unicode="&#x207f;" horiz-adv-x="911" 
d="M614 621v426q0 43 -4.5 73.5t-17 49.5t-34.5 27.5t-56 8.5q-42 0 -94 -15t-111 -40v-530h-164v692h160v-49q62 31 123 49t121 18q79 0 126.5 -21.5t73 -59t33.5 -88.5t8 -111v-430h-164z" />
    <glyph glyph-name="zero.inferior" unicode="&#x2080;" 
d="M834 -41q0 -206 -96.5 -311t-272.5 -105q-178 0 -272.5 104.5t-94.5 311.5v119q0 208 94.5 312t272.5 104q177 0 273 -104t96 -312v-119zM666 78q0 84 -15.5 138t-42.5 85.5t-64 44t-79 12.5t-78.5 -12.5t-63.5 -44t-42 -85.5t-15 -138v-119q0 -83 15 -136.5t42 -85
t63.5 -44t78.5 -12.5t79 12.5t64 44t42.5 85t15.5 136.5v119z" />
    <glyph glyph-name="one.inferior" unicode="&#x2081;" horiz-adv-x="881" 
d="M156 -438v121l213 6v635l-215 -68v137l262 88h121v-792l213 -6v-121h-594z" />
    <glyph glyph-name="two.inferior" unicode="&#x2082;" horiz-adv-x="911" 
d="M125 -438v114q0 79 16 136t51.5 102t92.5 82.5t139 77.5q65 31 103.5 54t58 43.5t25 41.5t5.5 49q0 59 -43.5 83t-146.5 24q-39 0 -81.5 -2t-82 -5t-72 -6t-51.5 -4v111q12 3 44 8t74 10.5t91 9t96 3.5q171 0 255.5 -54t84.5 -174q0 -47 -13 -85.5t-43 -73t-80 -67.5
t-124 -69q-74 -37 -120 -65t-71 -56.5t-33.5 -62.5t-8.5 -82v-12h481v-131h-647z" />
    <glyph glyph-name="three.inferior" unicode="&#x2083;" horiz-adv-x="905" 
d="M131 -313q19 -2 50 -4.5t68.5 -5.5t78.5 -5t80 -2q51 0 88.5 6t63 22.5t38 46t12.5 75.5q0 36 -4.5 64t-21 47.5t-47.5 29.5t-84 10h-279v123h281q52 0 83 11.5t47 31t20.5 46.5t4.5 59q0 34 -9.5 58t-32.5 39t-62 21.5t-98 6.5q-39 0 -80 -2t-78.5 -5t-68.5 -6t-50 -4
v113q11 3 41 8t70.5 10.5t87 9t90.5 3.5q88 0 155 -12.5t112 -41t68 -75.5t23 -115q0 -69 -27 -127.5t-89 -89.5q65 -29 90.5 -84.5t25.5 -132.5q0 -75 -23 -127t-68.5 -84.5t-112.5 -47t-154 -14.5q-44 0 -90.5 3.5t-87 9t-70.5 10.5t-41 8v113z" />
    <glyph glyph-name="four.inferior" unicode="&#x2084;" horiz-adv-x="948" 
d="M551 -438v225h-461v135l469 553h160v-563h143v-125h-143v-225h-168zM557 283l-313 -371h313v371z" />
    <glyph glyph-name="five.inferior" unicode="&#x2085;" horiz-adv-x="911" 
d="M125 -311q65 -8 133 -14.5t139 -6.5q61 0 103.5 9t68.5 30.5t37.5 57t11.5 88.5q0 40 -9.5 67t-34 43.5t-66.5 23.5t-107 7h-262l45 481h570v-129h-432l-23 -227h125q96 0 165 -14t113 -45.5t65 -82.5t21 -124q0 -92 -34 -151.5t-90.5 -95t-128.5 -49.5t-148 -14
q-69 0 -137 9.5t-125 21.5v115z" />
    <glyph glyph-name="six.inferior" unicode="&#x2086;" horiz-adv-x="963" 
d="M834 -158q0 -61 -15.5 -107t-42.5 -79.5t-62 -55t-74 -34.5t-79.5 -18t-77.5 -5q-81 0 -149 15.5t-116.5 57.5t-75.5 117t-27 195v201q0 89 18.5 157.5t62 114.5t116.5 69.5t182 23.5q46 0 91.5 -3.5t84.5 -8.5t69.5 -10t46.5 -9v-117q-25 3 -58 6.5t-69.5 6t-76 4.5
t-76.5 2q-76 0 -120.5 -15.5t-68 -44t-30 -70.5t-6.5 -94v-30q22 6 49.5 11t56 8t56 5t49.5 2q66 0 127.5 -8.5t109.5 -35.5t76.5 -77.5t28.5 -134.5v-39zM666 -123q0 48 -13 77.5t-37.5 45t-59 20.5t-77.5 5q-35 0 -89 -4.5t-109 -18.5v-92q0 -77 14.5 -124.5t41 -74
t64 -36t82.5 -9.5q36 0 69.5 9.5t58.5 30.5t40 54.5t15 81.5v35z" />
    <glyph glyph-name="seven.inferior" unicode="&#x2087;" horiz-adv-x="903" 
d="M186 -438l443 784h-496v129h660v-149l-424 -764h-183z" />
    <glyph glyph-name="eight.inferior" unicode="&#x2088;" horiz-adv-x="987" 
d="M750 35q51 -31 77.5 -80t26.5 -129q0 -100 -31.5 -156.5t-84 -84.5t-119.5 -35t-138 -7q-46 0 -91 2.5t-86 12t-76 28.5t-60.5 51.5t-40 81t-14.5 117.5q0 72 26.5 120t77.5 79q-48 31 -74 79.5t-26 127.5q0 82 31.5 131.5t83 76.5t117.5 35.5t136 8.5q69 0 134.5 -8.5
t116.5 -35.5t82.5 -76.5t31.5 -131.5q0 -79 -26 -127.5t-74 -79.5zM401 -23q-35 0 -58.5 -8.5t-37.5 -27t-20 -46.5t-6 -67q0 -55 15 -87.5t42 -49.5t65 -22t84 -5q45 0 82 5t64 22t42 49.5t15 87.5q-1 39 -7 67t-20 46.5t-37.5 27t-58.5 8.5h-164zM565 94q35 0 58 9.5
t36.5 27.5t19 45t5.5 62q0 43 -15 70t-42 41t-64 19t-82 5q-43 0 -79.5 -5t-63.5 -19t-42 -41t-15 -70q0 -35 5.5 -62t19 -45t37 -27.5t58.5 -9.5h164z" />
    <glyph glyph-name="nine.inferior" unicode="&#x2089;" horiz-adv-x="963" 
d="M666 -72q-23 -6 -50.5 -11t-56 -8t-56 -5t-48.5 -2q-66 0 -127.5 8t-109.5 35t-76.5 77.5t-28.5 135.5v39q0 92 34 150t86 90.5t114 44.5t118 12q81 0 148 -15t115.5 -57t75.5 -116.5t27 -194.5v-201q0 -89 -18.5 -157t-62 -115t-116 -71t-181.5 -24q-47 0 -93 3.5
t-85.5 9t-70 10.5t-46.5 8v115q18 -2 49 -5t69.5 -6t81 -5.5t82.5 -2.5q76 0 121 16t68 45.5t30 71t7 93.5v32zM666 129q0 77 -14.5 124.5t-41 74t-64 36t-83.5 9.5q-36 0 -69 -9.5t-58 -30.5t-40 -54.5t-15 -81.5v-35q0 -48 13 -77.5t37 -45t58 -20.5t76 -5q37 0 91 4
t110 17v94z" />
    <glyph glyph-name="parenleft.inferior" unicode="&#x208d;" horiz-adv-x="578" 
d="M319 -369q-28 34 -60 85.5t-59 120t-45 151.5t-18 180q0 99 18 184t45 155t59 122.5t60 87.5h162q-37 -51 -68.5 -109t-55 -125.5t-37 -145.5t-13.5 -169q0 -88 13.5 -163.5t37 -141t55 -123t68.5 -109.5h-162z" />
    <glyph glyph-name="parenright.inferior" unicode="&#x208e;" horiz-adv-x="578" 
d="M96 -369q38 52 70 109.5t55 123t36 141t13 163.5q0 91 -13 169t-36 145.5t-55 125.5t-70 109h162q28 -35 60 -87.5t59 -122.5t45 -155t18 -184q0 -97 -18 -180t-45 -151.5t-59 -120t-60 -85.5h-162z" />
    <glyph glyph-name="colonmonetary" unicode="&#x20a1;" horiz-adv-x="987" 
d="M643 -217v188h-49q-29 0 -49.5 1.5t-38.5 4.5v-194h-150v237q-111 56 -168 171.5t-57 285.5v174q0 171 57 285t168 170v254h150v-211q36 6 94 6h43v205h150v-223q42 -5 70.5 -11.5t39.5 -9.5v-139q-15 1 -45.5 4.5t-71 7t-87 6t-93.5 2.5q-66 0 -119.5 -14.5t-92 -53
t-59 -106t-20.5 -172.5v-174q0 -103 20.5 -170t59 -106.5t92 -55.5t119.5 -16q47 0 121 5t176 16v-140q-12 -3 -39.5 -8.5t-70.5 -11.5v-207h-150z" />
    <glyph glyph-name="franc" unicode="&#x20a3;" horiz-adv-x="1210" 
d="M383 324v-324h-188v324h-109v170h109v1028h901v-168h-713v-480h670v-169h-670v-211h428v-170h-428z" />
    <glyph glyph-name="lira" unicode="&#x20a4;" horiz-adv-x="1323" 
d="M217 0v143q54 59 73 127.5t19 130.5v76h-159v156h159v162h-159v155h159v80q0 127 18.5 224t69.5 161.5t141 97.5t232 33q69 0 130.5 -4.5t111.5 -10.5t88 -13t59 -13v-155q-39 6 -88 11.5t-100 10t-100.5 7.5t-88.5 3q-96 0 -152.5 -17.5t-85.5 -58.5t-37.5 -108.5
t-8.5 -167.5v-80h510v-155h-510v-162h510v-156h-510v-76q0 -68 -16 -126t-58 -115h735v-160h-942z" />
    <glyph glyph-name="peseta" unicode="&#x20a7;" horiz-adv-x="1411" 
d="M221 0v983h-137v166h137v373q79 0 156.5 1t152.5 1q89 0 172 -4.5t157 -18t137 -38.5t111 -66.5t79.5 -102.5t42.5 -145h119v-166h-117q-10 -95 -43 -161t-84.5 -109.5t-120.5 -68t-150 -36t-172.5 -14t-189.5 -2.5h-61v-592h-189zM1044 1073q-1 70 -16.5 118t-47 79
t-78 48t-108.5 25t-138.5 9.5t-168.5 1.5h-77v-596h47q146 0 256 4.5t183.5 31.5t110.5 86t37 167v26z" />
    <glyph glyph-name="Euro" unicode="&#x20ac;" horiz-adv-x="1366" 
d="M1223 6q-26 -5 -65.5 -11.5t-87 -11.5t-100 -8.5t-104.5 -3.5q-64 0 -128.5 8t-125 29t-115 59t-99 97.5t-77 144.5t-47.5 201h-147v145h131q-2 31 -3 63t-1 64v41t2 41h-129v146h145q14 117 45.5 202.5t75.5 145t99.5 96.5t116.5 57.5t126.5 27.5t130.5 7
q52 0 104.5 -3.5t100 -8.5t87 -11t65.5 -12v-155q-42 4 -90.5 8t-95.5 7t-88.5 5t-71.5 2q-73 0 -139.5 -10.5t-120.5 -48.5t-93 -111t-57 -198h676l-41 -146h-653q-2 -20 -2.5 -40t-0.5 -40q0 -32 1.5 -64.5t3.5 -64.5h587l-39 -145h-528q20 -125 59.5 -199t92.5 -112
t118 -49t136 -11q30 0 71.5 2t88.5 5.5t95.5 7.5t90.5 8v-156z" />
    <glyph glyph-name="litre" unicode="&#x2113;" horiz-adv-x="981" 
d="M879 88q-73 -62 -146.5 -92.5t-142.5 -30.5q-74 0 -127 21t-86.5 61t-49.5 98.5t-16 133.5v219l-129 -113l-82 94q31 28 57.5 52.5t52 47.5t50 46t51.5 49v555q0 94 15.5 165t49.5 118.5t88 71.5t130 24q74 0 124 -22t81 -59t44 -86t13 -104q0 -92 -26 -176.5
t-73.5 -165.5t-113.5 -160.5t-147 -160.5v-369q0 -56 7 -92.5t22.5 -57.5t40.5 -29.5t61 -8.5q40 0 83.5 20.5t84.5 55.5zM496 860q53 61 93.5 118.5t68 115t41.5 117t14 126.5q0 29 -5 53.5t-17.5 42t-32.5 27.5t-50 10q-38 0 -60.5 -15t-34 -45t-14.5 -75t-3 -106v-369z
" />
    <glyph glyph-name="trademark" unicode="&#x2122;" horiz-adv-x="1817" 
d="M1497 715v463q0 82 6 159h-2q-15 -31 -31.5 -64t-33.5 -61l-123 -198h-121l-119 198q-15 25 -33.5 59.5t-33.5 65.5h-2q6 -77 6 -159v-463h-150v807h176l166 -285q16 -25 26.5 -45.5t22.5 -48.5h2q14 28 24 48.5t26 45.5l167 285h179v-807h-152zM334 715v686h-246v121
h643v-121h-244v-686h-153z" />
    <glyph glyph-name="Omega" unicode="&#x2126;" horiz-adv-x="1395" 
d="M772 0v330q159 40 239.5 158t80.5 298v150q0 131 -32 216.5t-86.5 135.5t-126.5 70t-151 20t-150.5 -20t-126 -70t-86.5 -135.5t-32 -216.5v-150q0 -180 80.5 -298t239.5 -158v-330h-498v156h323v84q-91 36 -155 92.5t-104 127.5t-58 154t-18 172v150q0 150 42 264.5
t118.5 191t184.5 115.5t240 39q133 0 241.5 -39t185 -115.5t118 -191t41.5 -264.5v-150q0 -89 -18 -172t-58.5 -154t-104.5 -127.5t-155 -92.5v-84h326v-156h-500z" />
    <glyph glyph-name="estimated" unicode="&#x212e;" horiz-adv-x="1346" 
d="M1198 274q-43 -62 -93 -114.5t-113 -91t-143 -60.5t-183 -22q-135 0 -246 47.5t-189.5 128.5t-121.5 189t-43 229q0 122 42 230t120.5 189t191.5 128t254 47t253.5 -48t191 -129.5t120 -190t41.5 -228.5h-950v-396q71 -62 153 -95.5t183 -33.5q93 0 163 21t125 57t97 83
t79 99zM1014 979q-30 25 -68.5 48.5t-83 40.5t-92.5 27.5t-96 10.5q-100 0 -189 -32t-155 -95v-334h684v334z" />
    <glyph glyph-name="onethird" unicode="&#x2153;" horiz-adv-x="2101" 
d="M428 0l969 1522h184l-969 -1522h-184zM141 614v121l213 6v635l-215 -67v137l262 88h121v-793l213 -6v-121h-594zM1364 125q19 -2 50 -4.5t68.5 -5t78.5 -4.5t79 -2q51 0 89 6t63.5 22.5t38 45.5t12.5 75q0 36 -4.5 64t-21 47.5t-47.5 30t-84 10.5h-279v122h281
q52 0 83 11.5t47 31t20.5 46.5t4.5 59q0 34 -9.5 58t-33 39t-62.5 21.5t-98 6.5q-38 0 -79 -2t-78.5 -4.5t-68.5 -5.5t-50 -5v113q11 3 41 8t70.5 10.5t87 9t90.5 3.5q88 0 155 -12.5t112 -41t68 -75.5t23 -115q0 -69 -27 -127.5t-90 -89.5q65 -29 91 -84.5t26 -132.5
q0 -75 -23 -126.5t-68.5 -84t-112.5 -47t-154 -14.5q-44 0 -90.5 3.5t-87 8.5t-70.5 10t-41 8v113z" />
    <glyph glyph-name="twothirds" unicode="&#x2154;" horiz-adv-x="2220" 
d="M512 0l971 1522h184l-971 -1522h-184zM127 614v115q0 79 16 136t51.5 102t92.5 82t139 77q65 31 103.5 54.5t58 44t25 41.5t5.5 49q0 59 -43.5 82.5t-146.5 23.5q-39 0 -81.5 -2t-81.5 -4.5t-72 -5.5t-52 -4v111q12 3 44 8t74.5 10t91 8.5t95.5 3.5q171 0 255.5 -53.5
t84.5 -173.5q0 -47 -13 -85.5t-43 -73t-80 -67.5t-124 -69q-74 -37 -120 -65t-71 -56.5t-33.5 -62.5t-8.5 -82v-13h481v-131h-647zM1432 125q19 -2 50 -4.5t68.5 -5t78.5 -4.5t79 -2q51 0 89 6t63.5 22.5t38 45.5t12.5 75q0 36 -5 64t-21.5 47.5t-47.5 30t-84 10.5h-278v122
h280q52 0 83 11.5t47 31t21 46.5t5 59q0 34 -9.5 58t-33 39t-62.5 21.5t-98 6.5q-38 0 -79 -2t-78.5 -4.5t-68.5 -5.5t-50 -5v113q10 3 40 8t70.5 10.5t87 9t90.5 3.5q88 0 155.5 -12.5t112.5 -41t68 -75.5t23 -115q0 -69 -27 -127.5t-90 -89.5q65 -29 91 -84.5t26 -132.5
q0 -75 -23 -126.5t-68.5 -84t-112.5 -47t-155 -14.5q-44 0 -90.5 3.5t-87 8.5t-70.5 10t-40 8v113z" />
    <glyph glyph-name="oneeighth" unicode="&#x215b;" horiz-adv-x="2124" 
d="M428 0l969 1522h184l-969 -1522h-184zM141 614v127h213v635l-215 -67v137l262 88h121v-799h213v-121h-594zM1892 473q51 -31 78 -79.5t27 -129.5q0 -100 -32 -156.5t-84 -84.5t-119.5 -34.5t-137.5 -6.5q-46 0 -91 2.5t-86 12t-76.5 28t-61 51t-40 81t-14.5 117.5
q0 73 27 120.5t78 78.5q-48 31 -74 79.5t-26 127.5q0 82 31.5 131.5t83 76.5t117.5 35.5t136 8.5q68 0 133.5 -8.5t117 -35.5t83 -76.5t31.5 -131.5q0 -79 -26.5 -127.5t-74.5 -79.5zM1544 416q-35 0 -59 -8.5t-38 -27t-20 -47t-6 -67.5q0 -55 15 -87.5t42.5 -49.5t65.5 -22
t84 -5q45 0 82 5t64 22t42 49.5t15 87.5q-1 39 -7 67.5t-20 47t-37.5 27t-58.5 8.5h-164zM1708 532q35 0 58 9.5t36.5 28t19 45t5.5 61.5q0 44 -15 70.5t-42 41t-64 19t-82 4.5q-43 0 -80 -4.5t-64 -19t-42 -41t-15 -70.5q0 -35 5.5 -61.5t19.5 -45t37.5 -28t58.5 -9.5h164z
" />
    <glyph glyph-name="threeeighths" unicode="&#x215c;" horiz-adv-x="2175" 
d="M489 0l969 1522h184l-968 -1522h-185zM131 739q19 -2 50 -4.5t68.5 -5t78.5 -4.5t80 -2q51 0 88.5 6t63 22.5t38 45.5t12.5 75q0 36 -4.5 64.5t-21 48t-47.5 29.5t-84 10h-279v123h281q52 0 83 11t47 31t20.5 46.5t4.5 58.5q0 34 -9.5 58t-32.5 39t-62 21.5t-98 6.5
q-39 0 -80 -2t-78.5 -4.5t-68.5 -5.5t-50 -4v113q11 3 41 8t70.5 10t87 8.5t90.5 3.5q88 0 155 -12.5t112 -41t68 -75t23 -114.5q0 -70 -27 -128.5t-89 -89.5q65 -29 90.5 -84t25.5 -133q0 -74 -23 -126t-68.5 -84.5t-112.5 -47t-154 -14.5q-44 0 -90.5 3.5t-87 8.5
t-70.5 10.5t-41 8.5v112zM1937 473q51 -31 78 -79.5t27 -129.5q0 -100 -31.5 -156.5t-84 -84.5t-119.5 -34.5t-138 -6.5q-46 0 -91 2.5t-86 12t-76.5 28t-61 51t-40 81t-14.5 117.5q0 73 27 120.5t78 78.5q-48 31 -74 79.5t-26 127.5q0 82 31.5 131.5t83 76.5t117.5 35.5
t136 8.5q68 0 133.5 -8.5t117 -35.5t83 -76.5t31.5 -131.5q0 -79 -26.5 -127.5t-74.5 -79.5zM1589 416q-35 0 -59 -8.5t-38 -27t-20 -47t-6 -67.5q0 -55 15 -87.5t42.5 -49.5t65.5 -22t84 -5q45 0 82 5t64 22t42 49.5t15 87.5q-1 39 -7 67.5t-20 47t-37.5 27t-58.5 8.5h-164
zM1753 532q35 0 58 9.5t36.5 28t19 45t5.5 61.5q0 44 -15 70.5t-42 41t-64 19t-82 4.5q-43 0 -80 -4.5t-64 -19t-42 -41t-15 -70.5q0 -35 5.5 -61.5t19.5 -45t37.5 -28t58.5 -9.5h164z" />
    <glyph glyph-name="fiveeighths" unicode="&#x215d;" horiz-adv-x="2185" 
d="M467 0l971 1522h184l-971 -1522h-184zM125 741q65 -8 133 -14t139 -6q61 0 103.5 9t68.5 30t37.5 56.5t11.5 88.5q0 40 -9.5 67.5t-34 44t-66.5 23.5t-107 7h-262l45 481h570v-129h-432l-23 -228h125q96 0 165 -14t113 -45.5t65 -82t21 -124.5q0 -91 -34 -150.5
t-90.5 -95t-128.5 -49.5t-148 -14q-69 0 -137 9t-125 22v114zM1952 473q51 -31 77.5 -79.5t26.5 -129.5q0 -100 -31.5 -156.5t-84 -84.5t-119.5 -34.5t-138 -6.5q-46 0 -91 2.5t-86 12t-76 28t-60.5 51t-40 81t-14.5 117.5q0 73 26.5 120.5t77.5 78.5q-48 31 -74 79.5
t-26 127.5q0 82 31.5 131.5t83 76.5t118 35.5t136.5 8.5q68 0 133.5 -8.5t116.5 -35.5t82.5 -76.5t31.5 -131.5q0 -79 -26 -127.5t-74 -79.5zM1604 416q-36 0 -59.5 -8.5t-37.5 -27t-20 -47t-6 -67.5q0 -55 15 -87.5t42.5 -49.5t65.5 -22t84 -5q44 0 81 5t64 22t42 49.5
t15 87.5q-1 39 -7 67.5t-20 47t-37 27t-59 8.5h-163zM1767 532q36 0 59 9.5t36.5 28t18.5 45t5 61.5q0 44 -15 70.5t-42 41t-64 19t-82 4.5q-43 0 -79.5 -4.5t-63.5 -19t-42 -41t-15 -70.5q0 -35 5.5 -61.5t19.5 -45t37 -28t59 -9.5h163z" />
    <glyph glyph-name="seveneighths" unicode="&#x215e;" horiz-adv-x="2001" 
d="M283 0l970 1522h185l-971 -1522h-184zM176 614l442 785h-495v129h659v-150l-424 -764h-182zM1761 473q51 -31 78 -79.5t27 -129.5q0 -100 -32 -156.5t-84 -84.5t-119.5 -34.5t-137.5 -6.5q-46 0 -91 2.5t-86 12t-76.5 28t-61 51t-40 81t-14.5 117.5q0 73 27 120.5
t78 78.5q-48 31 -74.5 79.5t-26.5 127.5q0 82 31.5 131.5t83 76.5t118 35.5t136.5 8.5q68 0 133.5 -8.5t117 -35.5t83 -76.5t31.5 -131.5q0 -79 -26.5 -127.5t-74.5 -79.5zM1413 416q-35 0 -59 -8.5t-38 -27t-20 -47t-6 -67.5q0 -55 15 -87.5t42.5 -49.5t65.5 -22t84 -5
q45 0 82 5t64 22t42 49.5t15 87.5q-1 39 -7 67.5t-20 47t-37.5 27t-58.5 8.5h-164zM1577 532q35 0 58 9.5t36.5 28t19 45t5.5 61.5q0 44 -15 70.5t-42 41t-64 19t-82 4.5q-43 0 -80 -4.5t-64 -19t-42 -41t-15 -70.5q0 -35 5.5 -61.5t19.5 -45t37.5 -28t58.5 -9.5h164z" />
    <glyph glyph-name="partialdiff" unicode="&#x2202;" horiz-adv-x="1268" 
d="M279 1556q68 19 142.5 28t149.5 9q150 0 257 -45t176 -128.5t101 -201t32 -262.5q0 -54 -3.5 -113t-9.5 -118t-14 -116.5t-18 -108.5q-27 -142 -72.5 -242t-111.5 -163.5t-154 -92.5t-201 -29q-105 0 -183.5 27t-130.5 77.5t-78 123t-26 164.5q0 45 2 91.5t8 90.5
q14 110 54 196.5t106 146t156.5 91t206.5 31.5q56 0 101 -9.5t80.5 -24t61 -31.5t41.5 -32q1 15 1 32.5v36.5v36.5t-1 32.5q-5 79 -25 149.5t-64 124t-116 84.5t-182 31q-66 0 -140.5 -8t-145.5 -25v147zM571 133q80 0 139.5 23t101 70t67 119.5t36.5 170.5q5 35 7 65t2 46
q0 109 -60.5 168t-195.5 59q-157 0 -240.5 -86t-101.5 -246q-5 -38 -8 -80t-3 -77q0 -120 60.5 -176t195.5 -56z" />
    <glyph glyph-name="Delta" unicode="&#x2206;" horiz-adv-x="1425" 
d="M80 0l500 1522h262l504 -1522h-1266zM784 1114q-23 71 -38.5 138t-30.5 130h-4q-16 -62 -31.5 -129.5t-38.5 -138.5l-305 -950h754z" />
    <glyph glyph-name="product" unicode="&#x220f;" horiz-adv-x="1479" 
d="M1018 -135v1485h-559v-1485h-189v1485h-186v172h1309v-172h-187v-1485h-188z" />
    <glyph glyph-name="summation" unicode="&#x2211;" horiz-adv-x="1233" 
d="M168 -135v170l453 641l-453 676v170h901v-170h-670l418 -629v-100l-418 -588h670v-170h-901z" />
    <glyph glyph-name="minus" unicode="&#x2212;" horiz-adv-x="1438" 
d="M229 725v152h977v-152h-977z" />
    <glyph glyph-name="uni2215" unicode="&#x2215;" horiz-adv-x="846" 
d="M-154 0l969 1522h184l-968 -1522h-185z" />
    <glyph glyph-name="uni2219" unicode="&#x2219;" horiz-adv-x="516" 
d="M164 614v283h186v-283h-186z" />
    <glyph glyph-name="radical" unicode="&#x221a;" horiz-adv-x="1640" 
d="M674 -152l-316 979h-243v154h360l307 -993l576 1800h168l-633 -1940h-219z" />
    <glyph glyph-name="infinity" unicode="&#x221e;" horiz-adv-x="1587" 
d="M1006 274q-73 0 -128 29t-102 82q-32 -51 -81.5 -83t-121.5 -32h-14q-72 0 -122 24.5t-83.5 64.5t-52.5 90.5t-28.5 102t-12 100.5t-2.5 85v51q0 36 2.5 85t12 100.5t28.5 101.5t52.5 89.5t83.5 64t122 24.5h14q72 0 126 -31t98 -83q34 60 83.5 88t125.5 28h14
q71 0 120.5 -24.5t82.5 -64t51.5 -89.5t28 -102t12 -101t2.5 -86v-49q0 -37 -2.5 -85.5t-12 -100.5t-28 -102t-51.5 -89.5t-82.5 -63.5t-120.5 -24h-14zM1020 424q51 0 79 29.5t42 75.5t17 102t3 108v49q0 52 -3 108t-17 102.5t-42 76t-79 29.5h-14q-39 -2 -63 -25.5
t-38 -68.5t-23 -110.5t-18 -151.5q-6 -60 -13.5 -117t-16.5 -99q37 -55 81 -81.5t91 -26.5h14zM573 424q35 0 58 22t38.5 65.5t26 107t19.5 147.5q12 125 30 223q-37 57 -81 86t-91 29h-14q-51 0 -80.5 -30t-43.5 -76.5t-17.5 -102t-3.5 -107.5v-51q0 -52 3 -107.5
t17.5 -101t43.5 -75t81 -29.5h14z" />
    <glyph glyph-name="integral" unicode="&#x222b;" horiz-adv-x="1090" 
d="M453 1231q0 65 8 125t37.5 105.5t87 72.5t157.5 27q33 0 66.5 -3t62.5 -7.5t52.5 -9t36.5 -7.5v-127q-12 1 -33.5 2t-48.5 2.5t-57 2.5t-58 1q-45 0 -70.5 -8.5t-38 -29.5t-15.5 -56.5t-3 -89.5v-1313q0 -65 -8 -125t-37.5 -105.5t-87.5 -72.5t-158 -27q-33 0 -66 3
t-62.5 7.5t-52.5 9t-36 7.5v127q12 -1 34 -2t49.5 -2.5t57.5 -2.5t58 -1q44 0 69 8.5t37.5 29.5t15.5 56.5t3 89.5v1313z" />
    <glyph glyph-name="approxequal" unicode="&#x2248;" horiz-adv-x="1438" 
d="M1200 1169q0 -68 -12 -123.5t-39.5 -95t-73.5 -61t-114 -21.5q-38 0 -70 5t-60.5 15t-56 26t-55.5 38l-115 90q-40 31 -67.5 48.5t-61.5 17.5q-26 0 -42 -9.5t-25 -28t-12 -45.5t-3 -62v-74h-157v74q0 67 13 122.5t41.5 94.5t74.5 60.5t112 21.5q31 0 58.5 -6.5t53 -18.5
t51 -30t54.5 -40l115 -90q21 -17 39.5 -27.5t36 -16.5t36 -8.5t40.5 -2.5q26 0 42 9.5t24.5 28.5t11.5 46.5t3 62.5v74h158v-74zM1200 633q0 -68 -12 -123.5t-39.5 -95t-73.5 -61t-114 -21.5q-38 0 -70 4.5t-60.5 15t-56 26t-55.5 38.5l-115 90q-40 31 -67.5 48t-61.5 17
q-26 0 -42 -9.5t-25 -28t-12 -45.5t-3 -62v-74h-157v74q0 67 13 122.5t41.5 94.5t74.5 60.5t112 21.5q31 0 58.5 -6.5t53 -18.5t51 -29.5t54.5 -39.5l115 -90q21 -17 39.5 -28t36 -17t36 -8.5t40.5 -2.5q26 0 42 10t24.5 29t11.5 46.5t3 62.5v74h158v-74z" />
    <glyph glyph-name="notequal" unicode="&#x2260;" horiz-adv-x="1438" 
d="M690 500l-184 -500h-160l184 500h-270v151h330l110 299h-440v154h498l155 418h160l-155 -418h266v-154h-326l-108 -299h434v-151h-494z" />
    <glyph glyph-name="lessequal" unicode="&#x2264;" horiz-adv-x="1438" 
d="M211 0v152h1012v-152h-1012zM844 285l-596 516l596 514h250l-594 -514l594 -516h-250z" />
    <glyph glyph-name="greaterequal" unicode="&#x2265;" horiz-adv-x="1438" 
d="M211 0v152h1012v-152h-1012zM592 285h-252l596 516l-596 514h252l594 -514z" />
    <glyph glyph-name="lozenge" unicode="&#x25ca;" horiz-adv-x="1438" 
d="M211 731l510 615l506 -611l-512 -608zM1038 735l-317 379l-322 -383l316 -375z" />
    <glyph glyph-name="percent.oldstyle" unicode="&#xfe6a;" horiz-adv-x="1765" 
d="M1628 324q0 -171 -71.5 -259t-215.5 -88q-146 0 -217 88t-71 259v20q0 170 71 257t217 87q144 0 215.5 -87t71.5 -257v-20zM1473 344q0 63 -9.5 104.5t-27 66t-42 34.5t-53.5 10q-30 0 -55 -10t-42 -34.5t-26.5 -66t-9.5 -104.5v-20q0 -64 9.5 -105.5t26.5 -66t42 -34
t55 -9.5q29 0 53.5 9.5t42 34t27 66t9.5 105.5v20zM428 0l750 1163h165l-747 -1163h-168zM713 819q0 -168 -71 -256t-216 -88q-146 0 -217.5 88t-71.5 256v21q0 171 71.5 258.5t217.5 87.5q145 0 216 -87.5t71 -258.5v-21zM559 840q0 64 -9.5 105.5t-27 66t-42 34t-54.5 9.5
q-29 0 -53.5 -9.5t-41.5 -34t-26.5 -66t-9.5 -105.5v-21q0 -63 9.5 -104t26.5 -65.5t41.5 -34t53.5 -9.5q30 0 54.5 9.5t42 34t27 65.5t9.5 104v21z" />
    <glyph glyph-name="dollar.oldstyle" horiz-adv-x="1018" 
d="M428 -211v191q-44 1 -87 5t-80.5 9t-67.5 10t-48 10v133q21 -1 56 -2.5t80 -3t98 -3t110 -1.5q119 0 174.5 38t55.5 120q0 31 -7.5 56t-28 47t-55.5 42.5t-89 44.5l-168 74q-65 28 -112.5 60.5t-79 72t-47 88.5t-15.5 111q0 119 76 191.5t235 91.5v186h164v-180
q45 -2 88.5 -6.5t80 -10t65.5 -11t46 -9.5v-137q-21 1 -60 4t-86.5 6t-99 5.5t-96.5 2.5q-52 0 -94.5 -6t-72.5 -20.5t-46 -40t-16 -64.5q0 -29 6 -52.5t23 -45.5t48 -42.5t81 -41.5l170 -74q71 -31 123 -63t85.5 -71t49.5 -89t16 -117q0 -62 -19 -114.5t-58 -92.5
t-97.5 -66t-136.5 -36v-199h-164z" />
    <glyph glyph-name="dollar.superior" horiz-adv-x="854" 
d="M356 512v154q-71 2 -134 11t-97 17v127q19 -2 48 -4.5t65 -5t78.5 -4.5t89.5 -2q98 0 138 31t40 88q0 44 -28 71t-97 56l-148 63q-48 21 -86.5 43.5t-66.5 52t-43 69t-15 93.5q0 106 64 164t192 72v153h150v-149q37 -2 71.5 -5t64 -7t51.5 -8t34 -7v-129q-29 3 -66 6.5
t-75 7t-74 5.5t-63 2q-84 0 -131.5 -23.5t-47.5 -77.5q0 -21 6 -37.5t20 -31.5t36.5 -28t56.5 -26l150 -57q52 -20 92.5 -44t68 -55.5t42 -71.5t14.5 -91q0 -115 -64.5 -180t-185.5 -82v-160h-150z" />
    <glyph glyph-name="zero.oldstyle" horiz-adv-x="1307" 
d="M1186 532q0 -136 -35.5 -240t-103.5 -175t-167.5 -107.5t-226.5 -36.5q-128 0 -227 36.5t-167.5 107.5t-104 175t-35.5 240v91q0 135 35.5 239t104 174.5t167.5 107t227 36.5q127 0 226.5 -36.5t167.5 -107t103.5 -174.5t35.5 -239v-91zM999 623q0 111 -26 187t-72.5 122
t-109.5 66t-138 20q-74 0 -137.5 -20t-110 -66t-72.5 -122t-26 -187v-91q0 -111 26 -187t72.5 -122.5t110 -67t137.5 -20.5q75 0 138 20.5t109.5 67t72.5 122.5t26 187v91z" />
    <glyph glyph-name="one.oldstyle" horiz-adv-x="1040" 
d="M106 0v156l328 10v801l-330 -119v176l379 143h138v-1001l313 -10v-156h-828z" />
    <glyph glyph-name="two.oldstyle" horiz-adv-x="1206" 
d="M127 0v168l367 233q132 85 212.5 147.5t124 113.5t58 95.5t14.5 92.5q0 45 -19 77t-60.5 52.5t-108 29.5t-160.5 9q-40 0 -93 -3t-109.5 -8t-109.5 -11t-93 -11v150q39 10 92.5 18t111 14t113.5 9.5t100 3.5q148 0 248.5 -21.5t162 -63.5t88 -103.5t26.5 -141.5
q0 -73 -21.5 -134.5t-76.5 -125t-149.5 -136t-240.5 -167.5l-182 -119h659v-168h-954z" />
    <glyph glyph-name="three.oldstyle" horiz-adv-x="1221" 
d="M1059 45q0 -125 -36 -209t-104.5 -135.5t-167.5 -73.5t-225 -22q-63 0 -127.5 6.5t-121 15t-100.5 17.5t-66 14v141q27 -4 73.5 -9.5t102.5 -10.5t117.5 -8.5t119.5 -3.5q86 0 151 11t108.5 42t65 85t21.5 140v51q0 51 -7.5 96t-34 78.5t-77.5 52.5t-137 19h-440v158h440
q86 0 137 20.5t77.5 55.5t34 81t7.5 97v26q0 68 -16.5 113.5t-56 73.5t-106.5 39.5t-169 11.5q-55 0 -111 -3t-108.5 -7t-100 -9.5t-85.5 -9.5v146q10 2 51 9.5t99.5 15.5t126.5 14t132 6q135 0 235 -20t166 -67t99 -123.5t33 -189.5v-26q0 -51 -10 -100t-32 -92.5
t-57.5 -79.5t-85.5 -60q51 -26 86.5 -60.5t57 -76.5t31.5 -90t10 -99v-51z" />
    <glyph glyph-name="four.oldstyle" horiz-adv-x="1343" 
d="M811 -367v402h-721v192l694 928h215v-956h232v-164h-232v-402h-188zM811 901l-532 -702h532v702z" />
    <glyph glyph-name="five.oldstyle" horiz-adv-x="1198" 
d="M1079 31q0 -123 -36 -209t-106 -140.5t-174 -79t-239 -24.5q-71 0 -139 6t-124.5 14.5t-97.5 16.5t-59 12v150q31 -4 78.5 -10t103.5 -12t116.5 -10.5t117.5 -4.5q102 0 173.5 15t115.5 49t64 90t20 137v59q0 75 -16 127.5t-57.5 85.5t-114 47.5t-185.5 14.5h-385l66 763
h823v-167h-664l-38 -435h206q144 0 248.5 -24.5t171.5 -77.5t99 -135.5t32 -198.5v-59z" />
    <glyph glyph-name="six.oldstyle" horiz-adv-x="1292" 
d="M1171 453q0 -104 -25 -180t-67 -129.5t-95 -87.5t-110 -52.5t-112 -25.5t-100 -7q-68 0 -135 7t-127 28.5t-111.5 62.5t-89 108t-59 164.5t-21.5 233.5v396q0 139 28.5 246.5t95 180.5t175.5 110.5t270 37.5q67 0 132.5 -5.5t121.5 -12.5t98.5 -15t63.5 -12v-147
q-30 4 -77.5 9t-103 9.5t-116 8t-115.5 3.5q-132 0 -208.5 -29.5t-116 -84t-50 -130.5t-10.5 -169v-72q38 11 84.5 19.5t94.5 14.5t94.5 9.5t83.5 3.5q64 0 126.5 -5.5t119 -21.5t104 -44t82.5 -73t55 -110t20 -153v-86zM983 530q0 86 -22 138.5t-64 80.5t-103 37t-139 9
q-31 0 -71 -2t-85.5 -6.5t-94.5 -12t-97 -18.5v-191q0 -133 25 -217t71 -132t111.5 -65.5t147.5 -17.5q64 0 122.5 18t102.5 56.5t70 99t26 146.5v77z" />
    <glyph glyph-name="seven.oldstyle" horiz-adv-x="1184" 
d="M217 -367l698 1354h-809v168h986v-201l-664 -1321h-211z" />
    <glyph glyph-name="eight.oldstyle" horiz-adv-x="1341" 
d="M1210 438q0 -111 -22 -189t-60 -130t-90 -81.5t-112 -44.5t-125 -18.5t-129 -3.5h-6q-65 0 -130 3.5t-124.5 18.5t-111.5 44.5t-90.5 81.5t-60.5 129.5t-22 189.5v17q0 64 10.5 115t31.5 91.5t52 72t72 57.5q-74 44 -117 121.5t-43 197.5v23q0 87 21.5 152t59.5 111
t89 75t110 45.5t123.5 23t129.5 6.5h6q64 0 128.5 -6.5t124 -23t110.5 -45.5t88.5 -75t59 -111t21.5 -152v-23q0 -120 -43 -197.5t-117 -121.5q41 -26 72 -57.5t52 -72t31.5 -91.5t10.5 -115v-17zM1022 455q0 65 -10.5 113.5t-35.5 80t-66.5 47t-102.5 15.5h-277
q-61 0 -102.5 -15.5t-66.5 -47t-35.5 -80t-10.5 -113.5v-17q0 -104 26 -164.5t72.5 -91.5t111 -40t141.5 -9h6q77 0 141 9t110.5 40t72.5 91.5t26 164.5v17zM1018 1133q0 82 -26 131.5t-72.5 76t-110 35t-137.5 8.5h-6q-75 0 -138.5 -8.5t-110 -35t-72.5 -76t-26 -131.5v-23
q0 -56 10 -100.5t34.5 -75.5t65 -47.5t101.5 -16.5h277q61 0 102 16.5t65 47.5t34 75.5t10 100.5v23z" />
    <glyph glyph-name="nine.oldstyle" horiz-adv-x="1292" 
d="M963 252q-38 -11 -84.5 -19.5t-94.5 -14.5t-94.5 -9.5t-83.5 -3.5q-64 0 -126.5 5.5t-119 21.5t-104.5 44t-83 73t-55 109.5t-20 153.5v86q0 104 25.5 180t67 129.5t95 87.5t110 52.5t112 25.5t100.5 7q68 0 135 -7t127 -29t111.5 -62.5t89 -107.5t59 -165t21.5 -234
v-395q0 -140 -28.5 -247.5t-95 -180t-175.5 -110t-270 -37.5q-68 0 -133.5 5.5t-121 12.5t-98 14.5t-63.5 12.5v147q30 -4 77.5 -9t103 -9.5t115.5 -8t116 -3.5q132 0 208.5 29.5t116 84t50 130.5t10.5 169v72zM963 586q0 133 -25 217t-71 132t-112 65.5t-147 17.5
q-65 0 -123 -18t-102 -56.5t-70 -99.5t-26 -146v-77q0 -86 22 -138.5t64 -80.5t103 -37t138 -9q31 0 71 2t86 6.5t95 12t97 18.5v191z" />
    <glyph glyph-name="comma.superior" horiz-adv-x="516" 
d="M109 571l112 291h174l-147 -291h-139z" />
    <glyph glyph-name="period.superior" horiz-adv-x="414" 
d="M127 680v182h160v-182h-160z" />
    <glyph glyph-name="a.superior" horiz-adv-x="836" 
d="M551 621v49q-17 -11 -41 -22.5t-54 -21.5t-66 -16t-77 -6q-51 0 -92 11.5t-69.5 35.5t-44 61.5t-15.5 90.5v22q0 72 26 114.5t72.5 64.5t110.5 28t141 6h99v39q0 41 -5.5 67t-23 40.5t-49 20t-82.5 5.5q-28 0 -59 -1t-62.5 -2.5t-61 -3.5t-53.5 -3v96q10 4 35 10t60 11.5
t78 9.5t88 4q90 0 147.5 -15.5t90.5 -47t45.5 -79.5t12.5 -112v-456h-151zM545 940h-101q-51 0 -87.5 -3t-60 -14.5t-35 -34t-11.5 -61.5v-24q0 -27 8.5 -44.5t23 -27.5t34 -14t42.5 -4q30 0 59 5.5t53.5 13t44 16t30.5 14.5v178z" />
    <glyph glyph-name="b.superior" horiz-adv-x="870" 
d="M778 934q0 -90 -22.5 -153t-66.5 -103t-108.5 -58t-148.5 -18q-37 0 -69.5 1t-67 3t-73.5 5.5t-89 9.5v964h162v-291q43 22 90 30.5t90 8.5q155 0 229 -76.5t74 -238.5v-84zM616 1018q0 52 -8.5 88t-27.5 58t-49.5 32t-73.5 10q-12 0 -32 -1.5t-43 -5t-46 -9.5t-41 -16
v-439q22 -2 58 -5t81 -3q47 0 81 10.5t56.5 34.5t33.5 63.5t11 98.5v84z" />
    <glyph glyph-name="cent.superior" horiz-adv-x="788" 
d="M375 512v160q-62 11 -113 40t-87.5 79t-56.5 122t-20 170v109q0 176 68.5 283.5t208.5 130.5v147h141v-141q25 -1 50.5 -3t48.5 -5t42.5 -6.5t32.5 -6.5v-131q-22 2 -48 4.5t-53 4.5t-53.5 3t-50.5 1q-65 0 -107.5 -16.5t-68.5 -51t-36.5 -87.5t-10.5 -126v-109
q0 -71 9.5 -123t34.5 -86.5t68 -51.5t111 -17q62 0 116 3.5t89 6.5v-129q-26 -8 -74.5 -14t-99.5 -8v-152h-141z" />
    <glyph glyph-name="d.superior" horiz-adv-x="870" 
d="M586 621v36q-37 -21 -91 -38t-120 -17q-65 0 -117 18.5t-89 57.5t-57 99t-20 143v86q0 95 23.5 158t66 100t101.5 52t129 15q45 0 84 -4t79 -12v270h162v-964h-151zM578 1192q-41 8 -81.5 12t-68.5 4q-41 0 -73 -7.5t-54.5 -29t-34.5 -61.5t-12 -104v-86
q0 -102 38.5 -147.5t123.5 -45.5q45 0 85.5 11t76.5 28v426z" />
    <glyph glyph-name="e.superior" horiz-adv-x="854" 
d="M729 631q-20 -5 -50 -10t-66.5 -9.5t-78.5 -7t-85 -2.5q-116 0 -186 28.5t-108 76t-50.5 108t-12.5 125.5v49q0 170 86.5 256t247.5 86q90 0 153.5 -26t104 -72t59.5 -110t19 -140v-65h-508v-11q0 -35 4.5 -68t25 -59.5t62 -42.5t115.5 -16q72 0 141.5 6.5t126.5 15.5
v-112zM598 1032q0 27 -5 58t-23 58t-51.5 44.5t-90.5 17.5t-91 -18t-52 -45t-23.5 -58t-5.5 -57v-10h342v10z" />
    <glyph glyph-name="l.superior" horiz-adv-x="428" 
d="M133 621v964h162v-964h-162z" />
    <glyph glyph-name="m.superior" horiz-adv-x="1276" 
d="M979 621v444q0 34 -1.5 60.5t-10.5 45t-29 28t-57 9.5q-35 0 -79 -14t-87 -37q3 -25 3.5 -47.5t0.5 -42.5v-446h-162v446q0 33 -1.5 59t-10 44.5t-27.5 28t-53 9.5q-21 0 -44 -5t-45 -12.5t-42.5 -17.5t-38.5 -20v-532h-162v692h156v-58q46 34 103 55t122 21
q68 0 107.5 -21.5t62.5 -56.5q66 44 125.5 61t110.5 17q79 0 123.5 -23.5t66.5 -61t27.5 -84.5t5.5 -95v-446h-164z" />
    <glyph glyph-name="o.superior" horiz-adv-x="854" 
d="M762 930q0 -162 -86 -245t-250 -83q-162 0 -248 83t-86 245v76q0 162 86 243.5t248 81.5q164 0 250 -81.5t86 -243.5v-76zM600 1006q0 105 -41.5 152.5t-132.5 47.5t-131.5 -47t-40.5 -153v-76q0 -107 40.5 -155t131.5 -48t132.5 49t41.5 154v76z" />
    <glyph glyph-name="r.superior" horiz-adv-x="635" 
d="M133 621v692h154v-58q52 42 117.5 59t138.5 17v-133q-35 0 -70 -4t-67.5 -10.5t-61 -16t-49.5 -20.5v-526h-162z" />
    <glyph glyph-name="s.superior" horiz-adv-x="748" 
d="M104 737q15 -2 42.5 -5t61.5 -6t71.5 -5t72.5 -2q42 0 69.5 5.5t43.5 16t22.5 25.5t6.5 35t-5 34t-19.5 25.5t-41 23.5t-68.5 27l-55 21q-53 20 -93 40.5t-66.5 45.5t-40 56t-13.5 73q0 101 72.5 142.5t212.5 41.5q38 0 77.5 -2.5t74.5 -6t62 -8.5t40 -9v-103
q-15 1 -44.5 3t-64.5 4t-71 3.5t-64 1.5q-35 0 -60.5 -2.5t-41.5 -9.5t-23.5 -19.5t-7.5 -33.5q0 -15 5 -27t18 -22.5t35.5 -21t58.5 -23.5l59 -23q64 -24 107 -46.5t69 -48.5t37.5 -58t11.5 -74q0 -43 -15 -80t-50 -64.5t-92 -43t-140 -15.5q-39 0 -79 3.5t-75 8t-61.5 9.5
t-38.5 8v106z" />
    <glyph glyph-name="t.superior" horiz-adv-x="678" 
d="M586 623q-7 -3 -22 -6.5t-35 -6.5t-43.5 -5.5t-47.5 -2.5q-55 0 -93 10.5t-62 34.5t-34.5 62t-10.5 94v393l-146 12v105h146v180h161v-180h187v-117h-187v-391q0 -29 2 -46t9.5 -26.5t21 -12.5t37.5 -3q15 0 31.5 0.5l33 1t30 1t22.5 1.5v-98z" />
    <glyph glyph-name="hyphen.superior" horiz-adv-x="535" 
d="M117 1028v125h299v-125h-299z" />
    <glyph glyph-name="cent.oldstyle" horiz-adv-x="1030" 
d="M506 -240v226q-190 28 -282.5 154t-92.5 345v189q0 220 92.5 345.5t282.5 154.5v215h168v-211q31 -2 63 -5t61.5 -6.5t55.5 -8.5t45 -9v-141q-60 5 -130.5 8.5t-141.5 3.5q-82 0 -141 -18.5t-97 -59.5t-56 -107t-18 -161v-189q0 -95 18 -160.5t56 -107t97 -60t141 -18.5
q74 0 145 4.5t127 12.5v-146q-19 -5 -45 -10t-55.5 -8.5t-62 -6t-64.5 -3.5v-222h-166z" />
    <glyph glyph-name="hyphen.inferior" horiz-adv-x="535" 
d="M117 -2v125h299v-125h-299z" />
    <glyph glyph-name="cent.inferior" horiz-adv-x="788" 
d="M373 -608v159q-62 12 -113 41t-87.5 79t-56.5 122t-20 170v109q0 177 68 283.5t209 129.5v148h141v-141q25 -1 50.5 -3.5t48.5 -5.5t42.5 -6t32.5 -6v-131q-22 2 -48 4.5t-53 4t-53.5 2.5t-50.5 1q-65 0 -107.5 -16.5t-68.5 -51t-36.5 -87t-10.5 -125.5v-109
q0 -71 9.5 -123t34.5 -86.5t68 -51.5t111 -17q62 0 116 3.5t89 6.5v-129q-26 -8 -74.5 -14.5t-99.5 -8.5v-151h-141z" />
    <glyph glyph-name="dollar.inferior" horiz-adv-x="854" 
d="M350 -606v153q-71 2 -134 11.5t-97 17.5v127q38 -3 112 -9.5t168 -6.5q98 0 138.5 31t40.5 87q0 22 -6.5 39.5t-21.5 32t-39 28t-58 27.5l-148 64q-48 21 -86.5 43.5t-66.5 52t-43 69t-15 93.5q0 106 64 163.5t192 71.5v154h150v-149q37 -2 71.5 -5.5t64 -7t51.5 -7.5
t34 -7v-129q-29 3 -66 6.5t-75 6.5t-74 5t-64 2q-83 0 -130.5 -23t-47.5 -77q0 -21 6 -37.5t20 -31.5t36.5 -28t56.5 -26l149 -57q52 -20 93 -44t68.5 -55.5t42 -71.5t14.5 -91q0 -115 -65 -180t-185 -82v-160h-150z" />
    <glyph glyph-name="period.inferior" horiz-adv-x="414" 
d="M127 -348v182h160v-182h-160z" />
    <glyph glyph-name="comma.inferior" horiz-adv-x="516" 
d="M109 -457l112 291h174l-147 -291h-139z" />
    <glyph glyph-name="commaaccent" horiz-adv-x="1096" 
d="M324 -430l137 291h213l-182 -291h-168z" />
    <glyph glyph-name="Dotaccent" 
d="M377 1710v246h182v-246h-182z" />
    <glyph glyph-name="Breve" 
d="M813 1954q-5 -66 -25 -124t-60.5 -101t-104 -68t-156.5 -25t-156.5 25t-104 68t-60 101t-23.5 124h137q5 -55 20.5 -92t41 -60t61.5 -33t84 -10t84.5 10t62 33t41 60t21.5 92h137z" />
    <glyph glyph-name="Ogonek" 
d="M713 -424q-17 -6 -63 -13t-111 -7q-130 0 -195 54t-65 148q0 36 13.5 68t42 63.5t73.5 65.5t108 74h207q-101 -59 -158.5 -99.5t-86.5 -70t-36.5 -50.5t-7.5 -42t5.5 -38.5t19.5 -30t37.5 -19.5t58.5 -7q38 0 77 3.5t81 7.5v-107z" />
    <glyph glyph-name="Cedilla" 
d="M150 -430l237 291h229l-278 -291h-188z" />
    <glyph glyph-name="Ring" 
d="M471 1597q-51 0 -95 13t-76.5 40t-51.5 69.5t-19 101.5t19 101t51.5 69t76.5 40t95 13q50 0 93 -13t75 -40t50 -69t18 -101t-18 -101.5t-50 -69.5t-75 -40t-93 -13zM471 1933q-24 0 -45 -5.5t-36.5 -18.5t-24.5 -34.5t-9 -53.5q0 -63 33 -88t82 -25q23 0 43.5 6t36 19
t24.5 34.5t9 53.5t-9 53.5t-24.5 34.5t-36 18.5t-43.5 5.5z" />
    <glyph glyph-name="Tilde" 
d="M881 1884q0 -57 -9.5 -104t-33 -80.5t-61.5 -51.5t-95 -18t-106.5 21t-102.5 63l-84 68q-34 29 -59.5 43t-57.5 14q-43 0 -57 -32.5t-14 -92.5v-69h-133v69q0 58 11 105t35.5 80t63.5 51t94 18q29 0 54 -4.5t48.5 -13.5t47 -24t49.5 -36l86 -69q32 -26 60.5 -43t60.5 -17
q44 0 58 31.5t14 91.5v70h131v-70z" />
    <glyph glyph-name="Circumflex" 
d="M682 1638l-215 215l-213 -215h-184l276 316h244l276 -316h-184z" />
    <glyph glyph-name="Acute" 
d="M309 1638l269 316h223l-307 -316h-185z" />
    <glyph glyph-name="Caron" 
d="M346 1638l-276 316h184l213 -217l215 217h184l-276 -316h-244z" />
    <glyph glyph-name="Dieresis" 
d="M621 1694v241h165v-241h-165zM152 1694v241h167v-241h-167z" />
    <glyph glyph-name="Grave" 
d="M418 1638l-307 316h223l268 -316h-184z" />
    <glyph glyph-name="Hungarumlaut" 
d="M508 1632l270 316h223l-307 -316h-186zM74 1632l268 316h225l-307 -316h-186z" />
    <glyph glyph-name="Macron" 
d="M117 1718v144h702v-144h-702z" />
    <glyph glyph-name="commaaccent.cap" horiz-adv-x="1096" 
d="M324 -430l137 291h213l-182 -291h-168z" />
    <glyph glyph-name="h.superior" horiz-adv-x="911" 
d="M614 621v428q0 47 -6.5 77.5t-21.5 48t-39 24.5t-58 7q-29 0 -57 -4.5t-53.5 -11t-47 -14t-36.5 -13.5v-542h-162v964h162v-309q19 9 44.5 18.5t56 18t65 13.5t71.5 5q133 0 189.5 -69.5t56.5 -210.5v-430h-164z" />
    <glyph glyph-name="zero.slash" horiz-adv-x="1341" 
d="M1210 612q0 -159 -36 -279t-104.5 -200.5t-167.5 -121t-226 -40.5q-230 0 -365 129l-67 -100h-183l156 229q-37 75 -56.5 170.5t-19.5 212.5v293q0 160 36 280t104 200t167.5 120.5t227.5 40.5q220 0 356 -121l66 97h182l-152 -224q82 -152 82 -393v-293zM1022 905
q0 118 -23 205l-583 -858q46 -65 111.5 -92t146.5 -27q75 0 138.5 24t110 80.5t73 148t26.5 226.5v293zM928 1272q-47 60 -112 86t-142 26q-75 0 -138 -24t-108.5 -80t-71.5 -148t-26 -227v-293q0 -57 4 -104.5t12 -89.5z" />
    <glyph glyph-name="perthousand.oldstyle" horiz-adv-x="2456" 
d="M2318 324q0 -171 -71.5 -259t-214.5 -88q-147 0 -218 88t-71 259v20q0 170 71 257t218 87q143 0 214.5 -87t71.5 -257v-20zM2163 344q0 63 -9.5 104.5t-27 66t-41.5 34.5t-53 10q-31 0 -55.5 -10t-42 -34.5t-27 -66t-9.5 -104.5v-20q0 -64 9.5 -105.5t27 -66t42 -34
t55.5 -9.5q29 0 53 9.5t41.5 34t27 66t9.5 105.5v20zM1628 324q0 -171 -71.5 -259t-215.5 -88q-146 0 -217 88t-71 259v20q0 170 71 257t217 87q144 0 215.5 -87t71.5 -257v-20zM1473 344q0 63 -9.5 104.5t-27 66t-42 34.5t-53.5 10q-30 0 -55 -10t-42 -34.5t-26.5 -66
t-9.5 -104.5v-20q0 -64 9.5 -105.5t26.5 -66t42 -34t55 -9.5q29 0 53.5 9.5t42 34t27 66t9.5 105.5v20zM428 0l750 1163h165l-747 -1163h-168zM713 819q0 -168 -71 -256t-216 -88q-146 0 -217.5 88t-71.5 256v21q0 171 71.5 258.5t217.5 87.5q145 0 216 -87.5t71 -258.5v-21
zM559 840q0 64 -9.5 105.5t-27 66t-42 34t-54.5 9.5q-29 0 -53.5 -9.5t-41.5 -34t-26.5 -66t-9.5 -105.5v-21q0 -63 9.5 -104t26.5 -65.5t41.5 -34t53.5 -9.5q30 0 54.5 9.5t42 34t27 65.5t9.5 104v21z" />
    <glyph glyph-name="zero.taboldstyle" horiz-adv-x="1341" 
d="M1204 532q0 -136 -35.5 -240t-104 -175t-168 -107.5t-226.5 -36.5q-128 0 -227 36.5t-167 107.5t-103.5 175t-35.5 240v91q0 135 35.5 239t103.5 174.5t167 107t227 36.5q127 0 226.5 -36.5t168 -107t104 -174.5t35.5 -239v-91zM1016 623q0 111 -26 187t-72 122
t-109.5 66t-138.5 20t-138 -20t-108.5 -66t-71.5 -122t-26 -187v-91q0 -111 26 -187t71.5 -122.5t108.5 -67t138 -20.5t138.5 20.5t109.5 67t72 122.5t26 187v91z" />
    <glyph glyph-name="one.taboldstyle" horiz-adv-x="1341" 
d="M258 0v156l326 10v801l-328 -119v176l377 143h139v-1001l313 -10v-156h-827z" />
    <glyph glyph-name="two.taboldstyle" horiz-adv-x="1341" 
d="M188 0v168l367 233q132 85 212.5 147.5t124.5 113.5t58.5 95.5t14.5 92.5q0 45 -19 77t-61 52.5t-108.5 29.5t-160.5 9q-40 0 -93 -3t-109.5 -8t-109.5 -11t-93 -11v150q39 10 92.5 18t111 14t113.5 9.5t101 3.5q147 0 247.5 -21.5t162 -63.5t88 -103.5t26.5 -141.5
q0 -73 -21.5 -134.5t-76 -125t-149 -136t-240.5 -167.5l-183 -119h660v-168h-955z" />
    <glyph glyph-name="three.taboldstyle" horiz-adv-x="1341" 
d="M1145 45q0 -125 -36 -209t-104.5 -135.5t-167.5 -73.5t-225 -22q-63 0 -127.5 6.5t-121 15t-100.5 17.5t-66 14v141q27 -4 73.5 -9.5t102.5 -10.5t117.5 -8.5t119.5 -3.5q86 0 151 11t108.5 42t65 85t21.5 140v51q0 51 -7.5 96t-34 78.5t-77.5 52.5t-137 19h-440v158h440
q86 0 137 20.5t77.5 55.5t34 81t7.5 97v26q0 68 -16.5 113.5t-56 73.5t-106.5 39.5t-169 11.5q-55 0 -111 -3t-108.5 -7t-100 -9.5t-85.5 -9.5v146q10 2 51 9.5t99.5 15.5t126.5 14t132 6q135 0 235 -20t166 -67t99 -123.5t33 -189.5v-26q0 -51 -10 -100t-32 -92.5
t-57 -79.5t-85 -60q51 -26 86 -60.5t56.5 -76.5t31.5 -90t10 -99v-51z" />
    <glyph glyph-name="four.taboldstyle" horiz-adv-x="1341" 
d="M819 -367v402h-721v192l695 928h215v-956h231v-164h-231v-402h-189zM819 901l-532 -702h532v702z" />
    <glyph glyph-name="five.taboldstyle" horiz-adv-x="1341" 
d="M1157 57q0 -123 -36 -209t-106 -140t-174 -78.5t-239 -24.5q-71 0 -139 6t-124.5 14.5t-97.5 16.5t-59 12v149q31 -4 78.5 -10t103 -12t116 -10t118.5 -4q102 0 173 15t115.5 49t64.5 89.5t20 136.5v60q0 75 -16 127t-57.5 85t-114 47.5t-185.5 14.5h-385l66 764h823
v-168h-664l-39 -434h207q144 0 248.5 -24.5t171.5 -77.5t99 -135.5t32 -198.5v-60z" />
    <glyph glyph-name="six.taboldstyle" horiz-adv-x="1341" 
d="M1196 453q0 -104 -25.5 -180t-67 -129.5t-95 -87.5t-110 -52.5t-112 -25.5t-100.5 -7q-68 0 -134.5 7t-127 28.5t-112 62.5t-89 108t-59 164.5t-21.5 233.5v396q0 139 28.5 246.5t95 180.5t176 110.5t270.5 37.5q67 0 132.5 -5.5t121 -12.5t98 -15t63.5 -12v-147
q-30 4 -77 9t-103 9.5t-116 8t-115 3.5q-132 0 -208.5 -29.5t-116 -84t-50 -130.5t-10.5 -169v-72q37 11 84 19.5t95 14.5t94 9.5t83 3.5q64 0 126.5 -5.5t119 -21.5t104.5 -44t83 -73t55 -110t20 -153v-86zM1008 530q0 86 -22 138.5t-64 80.5t-103 37t-139 9q-31 0 -71 -2
t-85.5 -6.5t-94.5 -12t-97 -18.5v-191q0 -133 25 -217t71 -132t111.5 -65.5t146.5 -17.5q64 0 122.5 18t103 56.5t70.5 99t26 146.5v77z" />
    <glyph glyph-name="seven.taboldstyle" horiz-adv-x="1341" 
d="M289 -367l698 1354h-809v168h985v-201l-663 -1321h-211z" />
    <glyph glyph-name="eight.taboldstyle" horiz-adv-x="1341" 
d="M1210 438q0 -111 -22 -189t-60 -130t-90 -81.5t-112 -44.5t-125 -18.5t-129 -3.5h-6q-65 0 -130 3.5t-124.5 18.5t-111.5 44.5t-90.5 81.5t-60.5 129.5t-22 189.5v17q0 64 10.5 115t31.5 91.5t52 72t72 57.5q-74 44 -117 121.5t-43 197.5v23q0 87 21.5 152t59.5 111
t89 75t110 45.5t123.5 23t129.5 6.5h6q64 0 128.5 -6.5t124 -23t110.5 -45.5t88.5 -75t59 -111t21.5 -152v-23q0 -120 -43 -197.5t-117 -121.5q41 -26 72 -57.5t52 -72t31.5 -91.5t10.5 -115v-17zM1022 455q0 65 -10.5 113.5t-35.5 80t-66.5 47t-102.5 15.5h-277
q-61 0 -102.5 -15.5t-66.5 -47t-35.5 -80t-10.5 -113.5v-17q0 -104 26 -164.5t72.5 -91.5t111 -40t141.5 -9h6q77 0 141 9t110.5 40t72.5 91.5t26 164.5v17zM1018 1133q0 82 -26 131.5t-72.5 76t-110 35t-137.5 8.5h-6q-75 0 -138.5 -8.5t-110 -35t-72.5 -76t-26 -131.5v-23
q0 -56 10 -100.5t34.5 -75.5t65 -47.5t101.5 -16.5h277q61 0 102 16.5t65 47.5t34 75.5t10 100.5v23z" />
    <glyph glyph-name="nine.taboldstyle" horiz-adv-x="1341" 
d="M1008 252q-38 -11 -84.5 -19.5t-94.5 -14.5t-94.5 -9.5t-83.5 -3.5q-64 0 -126.5 5.5t-119 21.5t-104.5 44t-83 73t-55 109.5t-20 153.5v86q0 104 25.5 180t67 129.5t95 87.5t110 52.5t112 25.5t100.5 7q68 0 135 -7t127 -29t111.5 -62.5t89 -107.5t59 -165t21.5 -234
v-395q0 -140 -28.5 -247.5t-95 -180t-175.5 -110t-270 -37.5q-68 0 -133.5 5.5t-121 12.5t-98 14.5t-63.5 12.5v147q30 -4 77.5 -9t103 -9.5t115.5 -8t116 -3.5q132 0 208.5 29.5t116 84t50 130.5t10.5 169v72zM1008 586q0 133 -25 217t-71 132t-112 65.5t-147 17.5
q-65 0 -123 -18t-102 -56.5t-70 -99.5t-26 -146v-77q0 -86 22 -138.5t64 -80.5t103 -37t138 -9q31 0 71 2t86 6.5t95 12t97 18.5v191z" />
    <glyph glyph-name="colonmonetary.taboldstyle" horiz-adv-x="1231" 
d="M741 -213v190h-26q-29 0 -57 3t-54 6v-199h-149v246q-222 109 -222 454v185q0 173 56 285t166 169v234h149v-189q23 5 52.5 8t58.5 3h26v178h150v-193q32 -3 59 -8t47 -10v-152q-57 8 -127 13.5t-141 5.5q-81 0 -139.5 -18t-96 -58.5t-55.5 -106t-18 -161.5v-185
q0 -95 18 -161t55.5 -106.5t96 -58.5t139.5 -18q74 0 143.5 4.5t124.5 12.5v-150q-20 -6 -47 -10.5t-59 -7.5v-205h-150z" />
    <glyph glyph-name="Euro.taboldstyle" horiz-adv-x="1257" 
d="M1065 0q-19 -5 -51 -10t-70.5 -9t-80.5 -7t-81 -3q-104 0 -186.5 18t-142.5 63t-96 121.5t-48 193.5h-106v131h102v141h-102v133h106q10 125 46 205t95.5 125.5t141.5 62.5t186 17q41 0 83.5 -3t81.5 -7t71 -9.5t51 -9.5v-149q-62 5 -135.5 9.5t-143.5 4.5
q-68 0 -119.5 -9.5t-87.5 -36t-58 -74.5t-29 -126h520l-39 -133h-486v-141h447l-37 -131h-405q6 -69 28 -114.5t59.5 -72.5t91 -38t122.5 -11q36 0 75.5 1.5t76.5 3.5t68.5 4.5t51.5 4.5v-145z" />
    <glyph glyph-name="florin.taboldstyle" horiz-adv-x="1253" 
d="M717 545l-53 -414q-10 -78 -32 -129.5t-56.5 -83t-81.5 -44.5t-107 -13q-54 0 -97 5t-77 13l18 135q22 -2 38.5 -3t31.5 -2.5t30.5 -2t37.5 -0.5q31 0 50.5 8t32.5 25t20.5 43t14.5 63l52 400h-236l19 139h239l33 238q11 77 35 127t60 79t82.5 40.5t102.5 11.5
q53 0 91.5 -6.5t72.5 -14.5l-14 -131q-37 3 -65.5 5.5t-63.5 2.5q-26 0 -46 -3.5t-35.5 -16.5t-26 -38.5t-17.5 -70.5l-33 -223h264l-20 -139h-264z" />
    <glyph glyph-name="numbersign.taboldstyle" horiz-adv-x="1358" 
d="M735 0l33 295h-252l-33 -295h-153l32 295h-149v141h164l31 273h-195v141h211l35 309h153l-34 -309h249l37 309h154l-35 -309h160v-141h-176l-29 -273h205v-141h-219l-33 -295h-156zM813 709h-252l-31 -273h254z" />
    <glyph glyph-name="sterling.taboldstyle" horiz-adv-x="1255" 
d="M268 0v137q42 42 59 89.5t17 95.5v200h-123v154h123v112q0 102 19 176t63.5 122t118 71t182.5 23q85 0 158 -8.5t147 -22.5v-154q-96 11 -165 16t-115 5q-69 0 -113.5 -10t-70 -36t-35 -70t-9.5 -112v-112h375v-154h-375v-200q0 -51 -12 -89.5t-35 -70.5h555v-162h-764z
" />
    <glyph glyph-name="yen.taboldstyle" horiz-adv-x="1272" 
d="M725 340v-340h-180v340h-404v133h394l-84 154h-310v133h242l-207 399h201l178 -354q20 -42 39.5 -86t38.5 -90h4q19 46 38.5 90t41.5 86l180 354h195l-207 -399h245v-133h-311l-84 -154h395v-133h-405z" />
    <glyph glyph-name="dollar.taboldstyle" horiz-adv-x="1237" 
d="M537 -211v191q-44 1 -87 5t-80.5 9t-67.5 10t-48 10v140q49 -3 138.5 -10t205.5 -7q111 0 170 38t59 120q0 31 -7.5 56t-27.5 47t-55 42.5t-90 44.5l-168 74q-65 28 -112.5 60.5t-79 72t-47 88.5t-15.5 111q0 119 76.5 191.5t235.5 91.5v186h163v-180q45 -2 88.5 -6.5
t80.5 -10t66 -11t46 -9.5v-142q-21 2 -55 6t-78 7.5t-97.5 6.5t-111.5 3q-52 0 -94.5 -6t-72.5 -20.5t-46 -40t-16 -64.5q0 -29 6 -52.5t23 -45.5t47.5 -42.5t80.5 -41.5l170 -74q72 -31 123.5 -63t85.5 -71t50 -89t16 -117q0 -62 -19.5 -114.5t-58.5 -92.5t-97.5 -66
t-136.5 -36v-199h-163z" />
    <glyph glyph-name="cent.taboldstyle" horiz-adv-x="1231" 
d="M606 -240v226q-190 28 -282.5 154t-92.5 345v189q0 220 92.5 345.5t282.5 154.5v215h168v-211q31 -2 63 -5t61.5 -6.5t55.5 -8.5t45 -9v-139q-38 2 -70 4t-63.5 3.5t-65 2t-73.5 0.5q-82 0 -141 -18.5t-96.5 -59.5t-55.5 -107t-18 -161v-189q0 -95 18 -160.5t55.5 -107
t96.5 -60t141 -18.5q74 0 145.5 4.5t126.5 12.5v-146q-19 -5 -45 -10t-55.5 -8.5t-62 -6t-64.5 -3.5v-222h-166z" />
    <glyph glyph-name="zero.denominator" 
d="M834 397q0 -206 -96.5 -310.5t-272.5 -104.5q-178 0 -272.5 104t-94.5 311v119q0 209 94.5 312.5t272.5 103.5q176 0 272.5 -104t96.5 -312v-119zM666 516q0 84 -15.5 138t-42.5 86t-64 44.5t-79 12.5t-78.5 -12.5t-63.5 -44.5t-42 -86t-15 -138v-119q0 -83 15 -136.5
t42 -85t63.5 -44t78.5 -12.5t79 12.5t64 44t42.5 85t15.5 136.5v119z" />
    <glyph glyph-name="one.denominator" horiz-adv-x="881" 
d="M156 0v121l213 6v635l-215 -68v137l262 89h121v-793l213 -6v-121h-594z" />
    <glyph glyph-name="two.denominator" horiz-adv-x="911" 
d="M125 0v115q0 79 16 136t51.5 102t92.5 82t139 77q65 31 103.5 54.5t58 44t25 41.5t5.5 48q0 59 -43.5 83t-146.5 24q-39 0 -81.5 -2t-82 -4.5t-72 -5.5t-51.5 -4v110q12 3 44 8t74 10.5t91 9t96 3.5q172 0 256 -53.5t84 -173.5q0 -47 -13 -85.5t-43 -73t-80 -67.5
t-124 -69q-74 -37 -120 -65.5t-71 -57t-33.5 -62.5t-8.5 -82v-12h481v-131h-647z" />
    <glyph glyph-name="three.denominator" horiz-adv-x="905" 
d="M131 125q19 -2 50 -4.5t68.5 -5t78.5 -4.5t80 -2q51 0 88.5 6t63 22.5t38 45.5t12.5 75q0 36 -4.5 64t-21 47.5t-47.5 30t-84 10.5h-279v122h281q52 0 83 11.5t47 31t20.5 46.5t4.5 59q0 34 -9.5 58t-32.5 39t-62 21.5t-98 6.5q-39 0 -80 -2t-78.5 -4.5t-68.5 -5.5
t-50 -5v113q11 3 41 8t70.5 10.5t87 9t90.5 3.5q88 0 155 -12.5t112 -41t68 -75.5t23 -115q0 -69 -27 -127.5t-89 -89.5q65 -29 90.5 -84.5t25.5 -132.5q0 -75 -23 -126.5t-68.5 -84t-112.5 -47t-154 -14.5q-44 0 -90.5 3.5t-87 8.5t-70.5 10t-41 8v113z" />
    <glyph glyph-name="four.denominator" horiz-adv-x="948" 
d="M551 0v225h-461v135l469 553h160v-563h143v-125h-143v-225h-168zM557 721l-313 -371h313v371z" />
    <glyph glyph-name="five.denominator" horiz-adv-x="911" 
d="M125 127q65 -8 133 -14.5t139 -6.5q61 0 103.5 9t68.5 30.5t37.5 57t11.5 88.5q0 40 -9.5 67t-34 43.5t-66.5 23.5t-107 7h-262l45 481h570v-129h-432l-23 -227h125q96 0 165 -14t113 -45.5t65 -82.5t21 -124q0 -92 -34 -151.5t-90.5 -94.5t-128.5 -49t-148 -14
q-69 0 -137 9t-125 21v115z" />
    <glyph glyph-name="six.denominator" horiz-adv-x="963" 
d="M834 281q0 -61 -15.5 -107.5t-42.5 -79.5t-62 -54.5t-74 -34.5t-79.5 -18t-77.5 -5q-81 0 -149 15t-116.5 57.5t-75.5 117.5t-27 195v200q0 89 18.5 157.5t62 114.5t116.5 69.5t182 23.5q46 0 91.5 -3.5t84.5 -8.5t69.5 -10t46.5 -9v-117q-25 3 -58 6.5t-69.5 6.5
t-76 4.5t-76.5 1.5q-76 0 -120.5 -15.5t-68 -44t-30 -70t-6.5 -93.5v-31q22 6 49.5 11t56 8t56 5t49.5 2q66 0 127.5 -8t109.5 -35t76.5 -77.5t28.5 -135.5v-38zM666 315q0 48 -13 77.5t-37.5 45t-59 20.5t-77.5 5q-18 0 -40.5 -1t-48.5 -3.5t-54 -7t-55 -11.5v-92
q0 -77 14.5 -124.5t41 -74t64 -36t82.5 -9.5q36 0 69.5 9.5t58.5 30.5t40 55t15 82v34z" />
    <glyph glyph-name="seven.denominator" horiz-adv-x="903" 
d="M186 0l443 784h-496v129h660v-149l-424 -764h-183z" />
    <glyph glyph-name="eight.denominator" horiz-adv-x="987" 
d="M750 473q51 -31 77.5 -79.5t26.5 -129.5q0 -100 -31.5 -156.5t-84 -84.5t-119.5 -34.5t-138 -6.5q-46 0 -91 2.5t-86 12t-76 28t-60.5 51t-40 81t-14.5 117.5q0 73 26.5 120.5t77.5 78.5q-48 31 -74 79.5t-26 127.5q0 82 31.5 131.5t83 76.5t117.5 35.5t136 8.5
q69 0 134.5 -8.5t116.5 -35.5t82.5 -76.5t31.5 -131.5q0 -79 -26 -127.5t-74 -79.5zM401 416q-35 0 -58.5 -8.5t-37.5 -27t-20 -47t-6 -67.5q0 -55 15 -87.5t42 -49.5t65 -22t84 -5q45 0 82 5t64 22t42 49.5t15 87.5q-1 39 -7 67.5t-20 47t-37.5 27t-58.5 8.5h-164zM565 532
q35 0 58 9.5t36.5 28t19 45t5.5 61.5q0 44 -15 70.5t-42 41t-64 19t-82 4.5q-43 0 -79.5 -4.5t-63.5 -19t-42 -41t-15 -70.5q0 -35 5.5 -61.5t19 -45t37 -28t58.5 -9.5h164z" />
    <glyph glyph-name="nine.denominator" horiz-adv-x="963" 
d="M666 367q-23 -6 -50.5 -11t-56 -8.5t-56 -5.5t-48.5 -2q-66 0 -127.5 8.5t-109.5 35.5t-76.5 77.5t-28.5 134.5v39q0 61 15.5 107t42.5 79t62 54.5t74 34t79.5 17.5t78.5 5q81 0 148 -15t115.5 -57t75.5 -116.5t27 -194.5v-201q0 -88 -18.5 -156.5t-62 -115t-116 -70.5
t-181.5 -24q-47 0 -93 3.5t-85.5 8.5t-70 10t-46.5 8v115q18 -2 49 -5t69.5 -6t81 -5t82.5 -2q76 0 121 16t68 45t30 71t7 93v33zM666 567q0 77 -14.5 124.5t-41 74t-64 36t-83.5 9.5q-36 0 -69 -9.5t-58 -30.5t-40 -54.5t-15 -81.5v-35q0 -48 13 -77t37 -44.5t58 -20.5
t76 -5q37 0 91 4t110 16v94z" />
    <glyph glyph-name="comma.denominator" horiz-adv-x="516" 
d="M109 -109l112 291h174l-147 -291h-139z" />
    <glyph glyph-name="period.denominator" horiz-adv-x="414" 
d="M127 0v182h160v-182h-160z" />
    <glyph glyph-name="cent.denominator" horiz-adv-x="788" 
d="M373 -172v160q-62 11 -113 40t-87.5 79t-56.5 122t-20 170v109q0 176 68.5 283.5t208.5 130.5v147h141v-141q25 -1 50.5 -3t48.5 -5t42.5 -6.5t32.5 -6.5v-131q-22 2 -48 4.5t-53 4t-53.5 2.5t-50.5 1q-65 0 -107.5 -16.5t-68.5 -51t-36.5 -87t-10.5 -125.5v-109
q0 -71 9.5 -123t34.5 -86.5t68 -51.5t111 -17q62 0 116 3.5t89 6.5v-129q-26 -8 -74.5 -14t-99.5 -8v-152h-141z" />
    <glyph glyph-name="dollar.denominator" horiz-adv-x="854" 
d="M350 -172v154q-71 2 -134 11t-97 17v127q38 -3 112 -9.5t168 -6.5q98 0 138.5 31t40.5 88q0 44 -28 71t-97 56l-148 63q-48 21 -86.5 43.5t-66.5 52t-43 69t-15 93.5q0 106 64 164t192 72v153h150v-149q37 -2 71.5 -5t64 -7t51.5 -8t34 -7v-129q-29 3 -66 6.5t-75 7
t-74 5.5t-64 2q-83 0 -130.5 -23.5t-47.5 -77.5q0 -21 6 -37.5t20 -31.5t36.5 -28t56.5 -26l149 -57q52 -20 93 -44t68.5 -55.5t42 -71.5t14.5 -91q0 -115 -65 -180t-185 -82v-160h-150z" />
    <glyph glyph-name="hyphen.denominator" horiz-adv-x="535" 
d="M117 346v125h299v-125h-299z" />
    <glyph glyph-name="parenleft.denominator" horiz-adv-x="578" 
d="M319 -160q-28 34 -60 85.5t-59 120t-45 151.5t-18 180q0 99 18 184t45 155t59 122.5t60 87.5h162q-37 -52 -68.5 -110t-55 -125t-37 -145t-13.5 -169q0 -88 13.5 -163.5t37 -141.5t55 -123.5t68.5 -108.5h-162z" />
    <glyph glyph-name="parenright.denominator" horiz-adv-x="578" 
d="M96 -160q38 51 70 108.5t55 123.5t36 141.5t13 163.5v8q0 88 -13 164.5t-36 143t-55 124t-70 109.5h162q28 -35 60 -87.5t59 -121.5t45 -152.5t18 -179.5v-8q0 -97 -18 -180t-45 -151.5t-59 -120t-60 -85.5h-162z" />
    <glyph glyph-name="zero.numerator" 
d="M834 1012q0 -206 -96.5 -311t-272.5 -105q-177 0 -272 105t-95 311v118q0 209 94.5 312.5t272.5 103.5q176 0 272.5 -104t96.5 -312v-118zM666 1130q0 84 -15.5 138.5t-42.5 86t-64 44t-79 12.5t-78.5 -12.5t-63.5 -44t-42 -86t-15 -138.5v-118q0 -83 15 -137t42 -85.5
t63.5 -44t78.5 -12.5t79 12.5t64 44t42.5 85.5t15.5 137v118z" />
    <glyph glyph-name="one.numerator" horiz-adv-x="881" 
d="M156 614v121l213 6v635l-215 -67v137l262 88h121v-793l213 -6v-121h-594z" />
    <glyph glyph-name="two.numerator" horiz-adv-x="911" 
d="M125 614v115q0 79 16 136t51.5 102t92.5 82t139 77q65 31 103.5 54.5t58 44t25 41.5t5.5 49q0 59 -43.5 82.5t-146.5 23.5q-39 0 -81.5 -2t-82 -4.5t-72 -5.5t-51.5 -4v111q12 3 44 8t74 10t91 8.5t96 3.5q171 0 255.5 -53.5t84.5 -173.5q0 -47 -13 -85.5t-43 -73
t-80 -67.5t-124 -69q-74 -37 -120 -65t-71 -56.5t-33.5 -62.5t-8.5 -82v-13h481v-131h-647z" />
    <glyph glyph-name="three.numerator" horiz-adv-x="905" 
d="M131 739q19 -2 50 -4.5t68.5 -5t78.5 -4.5t80 -2q51 0 88.5 6t63 22.5t38 45.5t12.5 75q0 36 -4.5 64.5t-21 48t-47.5 29.5t-84 10h-279v123h281q52 0 83 11t47 31t20.5 46.5t4.5 58.5q0 34 -9.5 58t-32.5 39t-62 21.5t-98 6.5q-39 0 -80 -2t-78.5 -4.5t-68.5 -5.5
t-50 -4v113q11 3 41 8t70.5 10t87 8.5t90.5 3.5q88 0 155 -12.5t112 -41t68 -75t23 -114.5q0 -70 -27 -128.5t-89 -89.5q65 -29 90.5 -84t25.5 -133q0 -74 -23 -126t-68.5 -84.5t-112.5 -47t-154 -14.5q-44 0 -90.5 3.5t-87 8.5t-70.5 10.5t-41 8.5v112z" />
    <glyph glyph-name="four.numerator" horiz-adv-x="948" 
d="M551 614v226h-461v135l469 553h160v-563h143v-125h-143v-226h-168zM557 1335l-313 -370h313v370z" />
    <glyph glyph-name="five.numerator" horiz-adv-x="911" 
d="M125 741q65 -8 133 -14t139 -6q61 0 103.5 9t68.5 30t37.5 56.5t11.5 88.5q0 40 -9.5 67.5t-34 44t-66.5 23.5t-107 7h-262l45 481h570v-129h-432l-23 -228h125q96 0 165 -14t113 -45.5t65 -82t21 -124.5q0 -91 -34 -150.5t-90.5 -95t-128.5 -49.5t-148 -14q-69 0 -137 9
t-125 22v114z" />
    <glyph glyph-name="six.numerator" horiz-adv-x="963" 
d="M834 895q0 -61 -15.5 -107.5t-42.5 -79.5t-62 -54.5t-74 -34.5t-79.5 -18t-77.5 -5q-81 0 -149 15.5t-116.5 57.5t-75.5 117t-27 195v201q0 89 18.5 157t62 114t116.5 69.5t182 23.5q46 0 91.5 -3.5t84.5 -8t69.5 -9.5t46.5 -9v-117q-25 3 -58 6t-69.5 6t-76 4.5
t-76.5 1.5q-76 0 -120.5 -15.5t-68 -44t-30 -70t-6.5 -93.5v-31q22 6 49.5 11t56 8.5t56 5.5t49.5 2q66 0 127.5 -8.5t109.5 -35.5t76.5 -77.5t28.5 -134.5v-39zM666 930q0 48 -13 77t-37.5 44.5t-59 20.5t-77.5 5q-35 0 -89 -4t-109 -18v-92q0 -77 14.5 -124.5t41 -74
t64 -36t82.5 -9.5q36 0 69.5 9.5t58.5 30.5t40 54.5t15 81.5v35z" />
    <glyph glyph-name="seven.numerator" horiz-adv-x="903" 
d="M186 614l443 785h-496v129h660v-150l-424 -764h-183z" />
    <glyph glyph-name="eight.numerator" horiz-adv-x="987" 
d="M750 1087q51 -30 77.5 -79t26.5 -129q0 -100 -31.5 -157t-84 -85t-119.5 -34.5t-138 -6.5q-69 0 -135 7t-118 36t-83.5 87.5t-31.5 162.5q0 72 26.5 120t77.5 78q-48 31 -74 80t-26 127q0 82 31.5 131.5t83 76.5t117.5 35.5t136 8.5q69 0 134.5 -8.5t116.5 -35.5
t82.5 -76.5t31.5 -131.5q0 -78 -26 -127t-74 -80zM401 1030q-35 0 -58.5 -8.5t-37.5 -27t-20 -46.5t-6 -67q0 -56 15 -88.5t42 -49t65 -21.5t84 -5q45 0 82 5t64 21.5t42 49t15 88.5q-1 39 -7 67t-20 46.5t-37.5 27t-58.5 8.5h-164zM565 1147q35 0 58 9.5t36.5 27.5t19 44.5
t5.5 61.5q0 44 -15 70.5t-42 41t-64 19t-82 4.5q-43 0 -79.5 -4.5t-63.5 -19t-42 -41t-15 -70.5q0 -35 5.5 -61.5t19 -44.5t37 -27.5t58.5 -9.5h164z" />
    <glyph glyph-name="nine.numerator" horiz-adv-x="963" 
d="M666 981q-23 -6 -50.5 -11t-56 -8.5t-56 -5.5t-48.5 -2q-66 0 -127.5 8.5t-109.5 35.5t-76.5 77.5t-28.5 134.5v39q0 61 15.5 107t42.5 79t62 54.5t74 34t79.5 17.5t78.5 5q81 0 148 -15t115.5 -56.5t75.5 -116.5t27 -195v-200q0 -89 -18.5 -157t-62 -115t-116 -71
t-181.5 -24q-47 0 -93 3.5t-85.5 8.5t-70 10.5t-46.5 8.5v114q18 -2 49 -5t69.5 -6t81 -5t82.5 -2q76 0 121 16t68 45t30 71t7 93v33zM666 1182q0 76 -14.5 124t-41 74t-64 35.5t-83.5 9.5q-36 0 -69 -9.5t-58 -30.5t-40 -54.5t-15 -81.5v-35q0 -48 13 -77t37 -44.5
t58 -20.5t76 -5q37 0 91 4t110 16v95z" />
    <glyph glyph-name="comma.numerator" horiz-adv-x="516" 
d="M109 512l112 291h174l-147 -291h-139z" />
    <glyph glyph-name="period.numerator" horiz-adv-x="414" 
d="M127 621v182h160v-182h-160z" />
    <glyph glyph-name="cent.numerator" horiz-adv-x="788" 
d="M373 446v160q-62 12 -113 41t-87.5 79t-56.5 122t-20 170v108q0 177 68.5 284t208.5 130v148h141v-142q25 -1 50.5 -3t48.5 -5t42.5 -6t32.5 -6v-131q-22 2 -48 4.5t-53 4t-53.5 2.5t-50.5 1q-65 0 -107.5 -16.5t-68.5 -51t-36.5 -87.5t-10.5 -126v-108q0 -71 9.5 -123.5
t34.5 -87t68 -51.5t111 -17q62 0 116 3.5t89 7.5v-129q-13 -4 -32.5 -8t-42.5 -7t-48.5 -5t-50.5 -3v-152h-141z" />
    <glyph glyph-name="dollar.numerator" horiz-adv-x="854" 
d="M350 446v154q-35 1 -69.5 4t-64.5 7t-55 9t-42 9v127q19 -2 47.5 -4.5t64.5 -5.5t78.5 -5t89.5 -2q98 0 138.5 31t40.5 88q0 22 -6.5 39.5t-21.5 32t-39 27.5t-58 28l-148 64q-48 21 -86.5 43t-66.5 51.5t-43 69t-15 94.5q0 106 64 163.5t192 71.5v154h150v-150
q37 -2 71.5 -5t64 -6.5t51.5 -7.5t34 -7v-129q-29 3 -66 6.5t-75 6.5t-74 5t-64 2q-83 0 -130.5 -23t-47.5 -77q0 -21 6 -38t20 -31.5t36.5 -27.5t56.5 -26l149 -58q52 -20 93 -44t68.5 -55t42 -71t14.5 -92q0 -114 -65 -179.5t-185 -82.5v-160h-150z" />
    <glyph glyph-name="hyphen.numerator" horiz-adv-x="535" 
d="M117 969v125h299v-125h-299z" />
    <glyph glyph-name="parenleft.numerator" horiz-adv-x="578" 
d="M319 461q-28 34 -60 85.5t-59 119t-45 150.5t-18 179q0 100 18 185.5t45 155.5t59 122.5t60 87.5h162q-37 -52 -68.5 -110t-55 -125.5t-37 -145.5t-13.5 -170q0 -87 13.5 -162.5t37 -140.5t55 -122.5t68.5 -108.5h-162z" />
    <glyph glyph-name="parenright.numerator" horiz-adv-x="578" 
d="M96 461q38 51 70 108.5t55 122.5t36 140.5t13 162.5q0 92 -13 170t-36 145.5t-55 125.5t-70 110h162q28 -35 60 -87.5t59 -122.5t45 -155.5t18 -185.5q0 -96 -18 -179t-45 -150.5t-59 -119t-60 -85.5h-162z" />
    <glyph glyph-name="parenleft.cap" horiz-adv-x="610" 
d="M369 0q-39 48 -82 126t-79 177t-59.5 214.5t-23.5 240.5q0 128 23.5 245t59.5 215.5t79 176t82 127.5h161q-51 -73 -94.5 -158t-74.5 -180.5t-48.5 -202t-17.5 -223.5q0 -114 17.5 -219.5t48.5 -201t74.5 -180.5t94.5 -157h-161z" />
    <glyph glyph-name="parenright.cap" horiz-adv-x="610" 
d="M111 0q51 72 94.5 157t74.5 180.5t48.5 201t17.5 219.5q0 117 -17.5 223.5t-48.5 202t-74.5 180.5t-94.5 158h161q39 -50 82 -127.5t79 -176t59.5 -215.5t23.5 -245q0 -125 -23.5 -240.5t-59.5 -214.5t-79 -177t-82 -126h-161z" />
    <glyph glyph-name="bracketleft.cap" horiz-adv-x="672" 
d="M184 0v1522h379v-146h-209v-1233h209v-143h-379z" />
    <glyph glyph-name="bracketright.cap" horiz-adv-x="672" 
d="M106 0v143h211v1233h-211v146h379v-1522h-379z" />
    <glyph glyph-name="braceleft.cap" horiz-adv-x="700" 
d="M496 0q-97 0 -156 18t-91.5 52t-43 82.5t-10.5 109.5v223q0 46 -5 77t-17 54.5t-33 42.5t-52 41v119q31 22 52 41.5t33 42.5t17 54t5 77v223q0 63 10.5 112.5t43 83t91.5 51.5t156 18h104v-150h-104q-44 0 -69.5 -4.5t-39 -17t-17 -35t-3.5 -58.5v-223q0 -53 -6.5 -94
t-21 -73t-37 -58t-54.5 -49q31 -24 54 -50t38 -58.5t22 -73t7 -93.5v-223q0 -36 3.5 -58.5t16 -35t38 -17t69.5 -4.5h104v-147h-104z" />
    <glyph glyph-name="braceright.cap" horiz-adv-x="700" 
d="M88 0v147h105q43 0 68.5 4.5t38 17t16 35t3.5 58.5v223q0 53 7 93.5t22 73t37.5 58.5t54.5 50q-32 23 -54.5 49t-36.5 58t-20.5 73t-6.5 94v223q0 36 -4 58.5t-17 35t-39 17t-69 4.5h-105v150h105q97 0 156 -18t91 -51.5t43 -83t11 -112.5v-223q0 -46 4.5 -77t16.5 -54
t32.5 -42.5t52.5 -41.5v-119q-32 -22 -52.5 -41t-32.5 -42.5t-16.5 -54.5t-4.5 -77v-223q0 -61 -11 -109.5t-43 -82.5t-91 -52t-156 -18h-105z" />
    <glyph glyph-name="exclamdown.cap" horiz-adv-x="514" 
d="M164 1245v277h186v-277h-186zM158 -63l20 1189h160l18 -1189h-198z" />
    <glyph glyph-name="questiondown.cap" horiz-adv-x="967" 
d="M905 -43q-75 -20 -161.5 -33.5t-176.5 -13.5q-102 0 -181.5 18t-134.5 58t-83.5 103.5t-28.5 154.5v16q0 49 10 94.5t35 93t65.5 99t102.5 112.5q46 47 78.5 83.5t54 67t34 56.5t19 53t8 56t1.5 65v86h180v-86q0 -65 -6 -119t-27 -105.5t-61 -106t-109 -121.5
q-59 -58 -96.5 -101.5t-59.5 -81t-30 -72t-8 -73.5v-16q0 -53 16.5 -86t49 -52.5t79.5 -26.5t109 -7q74 0 156 7.5t165 16.5v-139zM543 1239v283h184v-283h-184z" />
    <glyph glyph-name="guillemotleft.cap" horiz-adv-x="1384" 
d="M1051 371l-334 426l334 422h217l-324 -422l324 -426h-217zM449 371l-334 426l334 422h217l-324 -422l324 -426h-217z" />
    <glyph glyph-name="guillemotright.cap" horiz-adv-x="1384" 
d="M115 371l323 426l-323 422h217l334 -422l-334 -426h-217zM717 371l323 426l-323 422h217l334 -422l-334 -426h-217z" />
    <glyph glyph-name="guilsinglleft.cap" horiz-adv-x="782" 
d="M451 371l-334 426l334 422h213l-326 -422l326 -426h-213z" />
    <glyph glyph-name="guilsinglright.cap" horiz-adv-x="782" 
d="M117 371l325 426l-325 422h213l334 -422l-334 -426h-213z" />
    <glyph glyph-name="hyphen.cap" horiz-adv-x="811" 
d="M152 727v154h505v-154h-505z" />
    <glyph glyph-name="endash.cap" horiz-adv-x="1055" 
d="M152 727v154h749v-154h-749z" />
    <glyph glyph-name="emdash.cap" horiz-adv-x="1430" 
d="M152 727v154h1126v-154h-1126z" />
    <glyph glyph-name="periodcentered.cap" horiz-adv-x="516" 
d="M164 666v282h186v-282h-186z" />
    </font>
</defs>
</svg>
